<?xml version="1.0" standalone="no"?>
<!DOCTYPE svg PUBLIC "-//W3C//DTD SVG 1.1//EN" "http://www.w3.org/Graphics/SVG/1.1/DTD/svg11.dtd" >
<svg xmlns="http://www.w3.org/2000/svg">
<metadata></metadata>
<defs>
<font id="cursive_standardregular" horiz-adv-x="970" >
<font-face units-per-em="2048" ascent="1638" descent="-410" />
<missing-glyph horiz-adv-x="819" />
<glyph horiz-adv-x="2048" />
<glyph horiz-adv-x="2048" />
<glyph unicode="&#xd;" horiz-adv-x="272" d="M-41 12q0 16 12.5 27.5t28.5 11.5q29 0 58.5 23.5t56 57.5t49 69t35.5 57q6 10 12 24.5t15.5 28t20.5 23.5t23 10q16 0 30.5 -11.5t14.5 -27.5q0 -2 -4 -10q-16 -39 -50 -94.5t-76 -105.5t-90 -86t-95 -36q-16 0 -28.5 11.5t-12.5 27.5z" />
<glyph unicode=" "  horiz-adv-x="819" />
<glyph unicode="&#x09;" horiz-adv-x="819" />
<glyph unicode="&#xa0;" horiz-adv-x="819" />
<glyph unicode="!" horiz-adv-x="550" d="M164 80q0 39 27.5 64.5t64.5 25.5t65.5 -25.5t28.5 -64.5t-28.5 -65.5t-65.5 -26.5t-64.5 26.5t-27.5 65.5zM211 338v1204q0 16 12.5 28.5t28.5 12.5t30.5 -11t14.5 -30v-1204q0 -18 -14.5 -29.5t-30.5 -11.5t-28.5 12.5t-12.5 28.5z" />
<glyph unicode="&#x22;" horiz-adv-x="501" d="M90 1130v259q0 16 12.5 27t28.5 11t29.5 -11t13.5 -27v-259q0 -16 -13.5 -27t-29.5 -11t-28.5 11t-12.5 27zM242 1130v259q0 16 12 27t29 11q16 0 29.5 -11t13.5 -27v-259q0 -16 -13.5 -27t-29.5 -11t-28.5 11t-12.5 27z" />
<glyph unicode="#" d="M74 573q0 16 12 28.5t29 12.5h180v226h-180q-16 0 -28.5 12t-12.5 29q0 16 12 28.5t29 12.5h180v170q0 16 12 28.5t29 12.5q16 0 29.5 -12.5t13.5 -28.5v-170h237v170q0 16 12.5 28.5t28.5 12.5t29.5 -12.5t13.5 -28.5v-170h177q16 0 29.5 -12.5t13.5 -28.5t-13.5 -28.5 t-29.5 -12.5h-177v-226h177q16 0 29.5 -12.5t13.5 -28.5t-13.5 -29.5t-29.5 -13.5h-177v-172q0 -16 -13 -28.5t-30 -12.5q-16 0 -28.5 12.5t-12.5 28.5v172h-237v-172q0 -16 -13.5 -28.5t-29.5 -12.5t-28.5 12.5t-12.5 28.5v172h-180q-16 0 -28.5 13.5t-12.5 29.5zM379 614 h237v226h-237v-226z" />
<glyph unicode="$" horiz-adv-x="464" d="M-41 317q0 4 13.5 38t30.5 76t32.5 79t19.5 49q-29 23 -49 53.5t-20 67.5q0 47 22.5 88t75.5 41q39 0 68.5 -27.5t29.5 -66.5q0 -31 -8 -61.5t-18 -59.5q51 -27 112.5 -55.5t115.5 -65.5t90 -87t36 -120q0 -66 -24.5 -120t-67.5 -92t-99.5 -59.5t-119.5 -21.5 q-86 0 -144.5 53.5t-58.5 145.5q0 47 31.5 81t78.5 34q18 0 33 -9.5t15 -29.5t-11.5 -27.5t-25 -11.5t-24.5 -10t-11 -27q0 -55 34 -86t83 -31q94 0 160.5 56.5t66.5 154.5q0 49 -33 88t-80 69t-98 52.5t-88 40.5q-18 -47 -36.5 -94t-39.5 -94q-8 -16 -18 -32.5t-33 -16.5 q-16 0 -28.5 11t-12.5 27zM68 698q0 -16 3 -27.5t13 -25.5q6 16 10 34t4 36q0 12 -14 12q-10 0 -13 -10t-3 -19z" />
<glyph unicode="%" horiz-adv-x="1140" d="M51 1384q0 47 19.5 88t51.5 74t75 51.5t88 18.5q47 0 90 -18.5t74.5 -50t50 -74t18.5 -89.5q0 -49 -17.5 -95t-48 -80.5t-73.5 -56.5t-94 -22t-94.5 22t-74 56.5t-48 80.5t-17.5 95zM135 1384q0 -31 10.5 -61.5t31 -55t48 -39t60.5 -14.5q35 0 61.5 14.5t47 39t30.5 55 t10 61.5q0 59 -45 104.5t-104 45.5t-104.5 -45t-45.5 -105zM246 8q94 244 190 485.5t195 483.5q47 117 94 230.5t92 230.5q6 12 15.5 41.5t22.5 58.5t28.5 51.5t31.5 22.5q18 0 30.5 -13.5t12.5 -29.5q-111 -289 -225.5 -572.5t-230.5 -570.5l-115 -287q-6 -12 -15.5 -41.5 t-22.5 -58.5t-28.5 -51.5t-31.5 -22.5q-18 0 -30.5 13.5t-12.5 29.5zM686 225q0 47 19.5 89t51 74t74.5 51.5t89 19.5q47 0 90 -18.5t74.5 -50.5t50 -75t18.5 -90q0 -49 -17.5 -95t-48 -81t-73.5 -56.5t-94 -21.5t-94.5 21.5t-74 56.5t-48 81t-17.5 95zM770 225 q0 -31 10.5 -61.5t30.5 -55t48 -40t61 -15.5q35 0 61.5 15.5t47 40t30.5 55t10 61.5q0 59 -45 104.5t-104 45.5t-104.5 -45t-45.5 -105z" />
<glyph unicode="&#x26;" horiz-adv-x="1136" d="M-10 479q0 86 30.5 156t80 127t111.5 106.5t126 92.5q-12 31 -29.5 72.5t-33 86.5t-25.5 88t-10 74q0 49 15 99.5t45 90t73 64.5t98 25t99 -24t76 -62.5t49.5 -88t17.5 -100.5q0 -61 -25.5 -113.5t-64.5 -95.5t-87.5 -79.5t-95.5 -67.5q82 -178 178.5 -348t212.5 -328 q41 66 52.5 129t11.5 139q0 41 -2 81t-12 79q-23 12 -48.5 27.5t-52.5 15.5q-8 0 -22.5 -8t-30.5 -19.5t-31.5 -19.5t-27.5 -8q-16 0 -27.5 13t-11.5 30q0 14 6 21t16 16q27 16 62 36.5t67 20.5q33 0 59.5 -11.5t51 -24.5t47.5 -24.5t47 -11.5q33 0 56.5 8.5t42 19.5 t31.5 19.5t22 8.5q16 0 29.5 -12.5t13.5 -28.5q0 -14 -15 -29q-35 -35 -89 -54.5t-103 -15.5q6 -61 6 -121q0 -98 -18.5 -181t-75.5 -165q35 -41 71.5 -77.5t90.5 -51.5q16 -4 28 -11t12 -30q0 -18 -13 -29.5t-30 -11.5q-29 0 -59.5 15.5t-58 38t-51 48t-41.5 46.5 q-68 -72 -158 -110t-189 -38q-104 0 -195 40t-157.5 110t-105.5 161t-39 195zM74 479q0 -86 31.5 -162.5t87 -135t131 -92.5t163.5 -34q84 0 159 35t132 96q-123 160 -222 336t-183 361q-53 -37 -106.5 -78t-96.5 -90t-69.5 -106.5t-26.5 -129.5zM324 1282q0 -27 9 -63.5 t21.5 -75.5t26.5 -75t25 -62q35 25 73.5 53t72.5 63t55.5 76t21.5 88q0 33 -11.5 68t-31 62.5t-49 45t-66.5 17.5t-64.5 -18.5t-46 -48.5t-27.5 -64.5t-9 -65.5z" />
<glyph unicode="'" horiz-adv-x="354" d="M92 1130v256q0 16 12.5 27.5t28.5 11.5t29.5 -11t13.5 -28v-256q0 -16 -13 -27t-30 -11q-16 0 -28.5 11t-12.5 27z" />
<glyph unicode="(" horiz-adv-x="485" d="M-14 627q0 115 24.5 248t68.5 266t104.5 254t133.5 209q14 18 33 18q16 0 29.5 -13.5t13.5 -29.5q0 -8 -14 -34.5t-33.5 -56.5t-37 -57.5t-23.5 -39.5q-98 -174 -156.5 -370t-58.5 -394q0 -201 58 -396.5t157 -369.5q6 -12 23.5 -40t37 -57.5t33.5 -56.5t14 -35 q0 -16 -13 -28.5t-30 -12.5q-20 0 -33 17q-74 82 -134 204.5t-104 258t-68.5 271.5t-24.5 245z" />
<glyph unicode=")" horiz-adv-x="485" d="M92 -328q0 8 8 25q70 109 127.5 218.5t99.5 223t65.5 235.5t23.5 253q0 133 -23.5 252.5t-65.5 233.5t-99.5 223.5t-127.5 217.5q-8 16 -8 25q0 16 13.5 29.5t29.5 13.5q18 0 33 -18q74 -88 134 -209t105.5 -254t70 -266t24.5 -248q0 -109 -24.5 -245t-70 -271.5 t-105.5 -258t-134 -204.5q-12 -16 -33 -17q-16 0 -29.5 12.5t-13.5 28.5z" />
<glyph unicode="*" d="M176 1323q0 16 13.5 28.5t29.5 12.5q10 0 41 -15.5t66.5 -35t68.5 -38t45 -24.5v217q0 16 12.5 28.5t28.5 12.5t29.5 -12t13.5 -29v-217q12 6 45 24.5t69 38t67.5 35t39.5 15.5q16 0 29.5 -11.5t13.5 -27.5q0 -23 -22 -35l-197 -108l201 -105q23 -10 23 -33 q0 -16 -13.5 -28t-29.5 -12q-8 0 -40 15t-69 34.5t-70.5 38t-46.5 24.5v-225q0 -16 -13 -28.5t-30 -12.5q-16 0 -28.5 12t-12.5 29v217q-12 -6 -45 -24.5t-68.5 -38t-66.5 -35t-41 -15.5q-16 0 -28.5 12.5t-12.5 28.5q0 25 19 33l202 113l-202 106q-20 10 -21 35z" />
<glyph unicode="+" horiz-adv-x="1779" d="M446 715q0 16 11.5 28.5t27.5 12.5h363v350q0 16 12 28.5t29 12.5q16 0 29.5 -12.5t13.5 -28.5v-350h362q16 0 29.5 -12.5t13.5 -28.5t-13 -28.5t-30 -12.5h-362v-346q0 -16 -13.5 -28.5t-29.5 -12.5t-28.5 12t-12.5 29v346h-363q-16 0 -27.5 12t-11.5 29z" />
<glyph unicode="," horiz-adv-x="264" d="M-190 -274q0 16 12 27t28 11q41 0 75 19.5t61.5 49.5t47 67t29.5 71q23 74 23 146q0 16 12.5 27.5t28.5 11.5t29.5 -11.5t13.5 -27.5q0 -70 -19.5 -145.5t-59.5 -139t-100.5 -104.5t-140.5 -41q-16 0 -28 11t-12 28z" />
<glyph unicode="-" d="M170 352q0 16 14.5 21.5t26.5 5.5h547q12 0 27.5 -5.5t15.5 -21.5t-15.5 -21t-27.5 -5h-547q-12 0 -26.5 5t-14.5 21z" />
<glyph unicode="." horiz-adv-x="282" d="M49 66q0 37 31 57t63 20q33 0 63 -21t30 -56t-30 -56.5t-63 -21.5t-63.5 20.5t-30.5 57.5z" />
<glyph unicode="/" d="M260 14v9l367 1531q4 14 15 22.5t26 8.5q18 0 30.5 -13.5t12.5 -29.5q0 -2 -1 -4t-1 -4l-367 -1530q-6 -31 -39 -31q-16 0 -29.5 12.5t-13.5 28.5z" />
<glyph unicode="0" horiz-adv-x="1247" d="M20 782q0 170 54 336q31 92 81 178t120.5 153t157.5 106.5t192 39.5q104 0 191 -39.5t156.5 -106.5t120 -153t81.5 -178q53 -166 53 -336q0 -158 -47 -315q-29 -94 -79 -184t-121 -161t-161 -114t-196 -43q-152 0 -264.5 79t-188.5 200t-113 265t-37 273zM104 782 q0 -111 32 -239.5t95.5 -238t162 -183.5t229.5 -74q92 0 168.5 40t137 102.5t103.5 142.5t68 160q43 140 43 290q0 162 -49 312q-25 78 -68 152.5t-102.5 134t-134 96t-164.5 36.5q-88 0 -164 -36.5t-135.5 -96t-102.5 -134.5t-69 -152q-49 -150 -50 -312z" />
<glyph unicode="1" horiz-adv-x="1247" d="M377 1040q0 16 12 29q18 20 37.5 39.5t38.5 40.5q82 86 156 174q45 55 84.5 113.5t87.5 111.5q16 20 36 21q18 0 28.5 -14.5t10.5 -30.5l4 -1510q0 -18 -13 -29.5t-30 -11.5q-16 0 -28.5 11.5t-12.5 29.5l-4 1383q-12 -14 -39.5 -50t-63.5 -81t-76 -92.5t-76.5 -86 t-66.5 -64.5t-44 -26q-16 0 -28.5 13.5t-12.5 29.5z" />
<glyph unicode="2" horiz-adv-x="1247" d="M98 1038q0 113 41 215.5t114 181t171 125t213 46.5q84 0 166 -28t147.5 -79t105.5 -125t40 -164q0 -115 -61.5 -214t-154 -190t-202 -178t-206.5 -177.5t-166.5 -187.5t-84.5 -208h885q16 0 29.5 -11.5t13.5 -29.5t-13.5 -29.5t-29.5 -11.5h-928q-16 0 -29.5 12.5 t-13.5 28.5q0 127 64.5 236.5t163 208t211 189.5t211 181.5t163 183.5t64.5 197q0 74 -34 131.5t-87 98.5t-121 62.5t-133 21.5q-98 0 -181 -40t-144.5 -107.5t-95.5 -154.5t-34 -184q0 -18 -13 -29.5t-30 -11.5q-16 0 -28.5 11.5t-12.5 29.5z" />
<glyph unicode="3" horiz-adv-x="1247" d="M80 428q0 18 12 29.5t29 11.5q16 0 29.5 -11.5t13.5 -29.5q0 -88 39 -158.5t101.5 -120t141 -75t160.5 -25.5q92 0 178 36t154 98.5t107.5 146.5t39.5 178q0 86 -35.5 160.5t-103.5 128.5q-51 -37 -111.5 -55.5t-123.5 -18.5q-25 0 -55.5 8t-59.5 24.5t-48.5 39 t-19.5 51.5q0 33 17.5 54.5t43 34.5t55.5 19.5t56 6.5q61 0 123 -14.5t117 -45.5q53 53 81 124t28 146q0 78 -40 140.5t-101.5 107.5t-136.5 69.5t-144 24.5q-59 0 -120 -15t-114 -45t-98 -72t-76 -95q-10 -18 -22.5 -42.5t-38.5 -24.5q-16 0 -28.5 12t-12.5 29q0 12 2 18 q35 74 88 132t119.5 99t143.5 63.5t157 22.5q86 0 176 -30.5t163.5 -86t120 -133t46.5 -174.5q0 -88 -32 -169.5t-91 -147.5q78 -66 118.5 -156t40.5 -190q0 -111 -47 -210t-124.5 -173t-179 -117t-212.5 -43q-98 0 -193.5 33t-169 93.5t-118.5 145.5t-45 191zM612 846 q0 -8 12.5 -15.5t30 -12.5t34 -8t22.5 -3q79 0 153 39q-39 16 -81 24.5t-83 8.5q-8 0 -22 -1t-28.5 -4.5t-26 -9.5t-11.5 -18z" />
<glyph unicode="4" horiz-adv-x="1247" d="M86 530q0 12 6 25l592 1008q14 20 35 20q16 0 30.5 -11t14.5 -30q0 -10 -8 -22l-553 -940q39 2 76 2h75q174 0 342 -7v220q0 18 12.5 29.5t28.5 11.5t29.5 -11.5t13.5 -29.5v-222q47 -2 92.5 -3t92.5 -1q39 0 75.5 2t75.5 2q18 0 31.5 -10.5t13.5 -30.5t-15.5 -30 t-37 -13.5t-43 -2.5t-35.5 1q-63 0 -124.5 1t-125.5 4v-478q0 -18 -13 -29.5t-30 -11.5q-16 0 -28.5 11.5t-12.5 29.5v478q-82 4 -163.5 6t-163.5 2q-59 0 -119 -4t-119 -4q-18 0 -31.5 9t-13.5 29z" />
<glyph unicode="5" horiz-adv-x="1247" d="M109 485q0 18 12 29.5t29 11.5q16 0 30.5 -11t14.5 -30q0 -90 34.5 -166.5t95 -135t140.5 -91.5t170 -33q98 0 185 37t151.5 101.5t102.5 151.5t38 186q0 94 -43 169.5t-111.5 130t-154.5 83t-174 28.5q-68 0 -118 -4t-93 -17.5t-85 -40t-93 -71.5q-10 -6 -17.5 -10 t-15.5 -4q-20 0 -31.5 14t-9.5 31l2 8q6 92 16.5 177t10.5 177q0 80 -17.5 161t-17.5 161q0 29 8 59.5t41 30.5q68 0 138.5 -2t139.5 -2q137 0 273.5 2t277.5 2q16 0 28.5 -10.5t12.5 -28.5t-12 -30.5t-29 -12.5q-143 0 -284.5 -3t-282.5 -3h-111h-53t-55 2q8 -80 17.5 -160 t9.5 -166q0 -127 -13 -258q86 53 175 68.5t188 15.5q104 0 206.5 -35.5t183.5 -101.5t130 -156.5t49 -203.5q0 -115 -45 -216.5t-122 -178.5t-179 -122t-217 -45q-109 0 -204 41t-166.5 111t-113.5 163t-42 197z" />
<glyph unicode="6" horiz-adv-x="1247" d="M109 618q0 86 21.5 191.5t61 214.5t97 211t131.5 183t163 129t191 48q18 0 30.5 -11t12.5 -30q0 -20 -12 -28t-29 -13q-49 -8 -79.5 -13t-78.5 -30q-84 -43 -156.5 -132t-127.5 -196.5t-91 -219t-48 -201.5q-4 -23 -5.5 -47.5t-3.5 -46.5q4 12 8.5 26.5t10.5 24.5 q29 55 77 98t105 73t119.5 45t124.5 15q100 0 192 -35.5t163 -100t113 -153t42 -190.5t-43 -188t-115 -147.5t-163 -96.5t-189 -35q-90 0 -172 27.5t-147.5 80t-111.5 125t-65 162.5q-14 63 -20 129t-6 131zM213 436q0 -86 34 -157.5t92 -124t134 -81t158 -28.5 q80 0 156.5 28.5t136 80t96.5 122t37 154.5q0 86 -36 159t-94.5 126t-135 82.5t-160.5 29.5q-80 0 -156 -29.5t-134 -81.5t-93 -124t-35 -156z" />
<glyph unicode="7" horiz-adv-x="1247" d="M10 1546q0 20 16.5 30.5t38 13.5t44 2t36.5 -1q193 0 381.5 -8t380.5 -8q72 0 144.5 6t144.5 6q16 0 29.5 -10.5t13.5 -26.5q0 -12 -10 -26l-455 -680q16 0 29.5 -1t30.5 -1q72 0 145 6q18 2 35.5 4t36.5 2q18 0 32.5 -10t14.5 -31q0 -16 -10.5 -26.5t-26.5 -14.5 q-33 -8 -77 -11t-93 -3q-47 0 -92 2t-80 2l-518 -770q-12 -18 -35 -19q-16 0 -28.5 12.5t-12.5 28.5q0 14 6 23l490 729q-63 4 -126 6t-126 2q-29 0 -55.5 -1t-55.5 -1q-18 0 -30.5 10.5t-12.5 30.5q0 31 26.5 37t49.5 6q98 0 192.5 -3t190.5 -7l438 653q-100 -6 -201 -6 q-166 0 -332.5 8t-332.5 8q-47 0 -96.5 -2t-96.5 -2q-18 0 -30.5 11.5t-12.5 29.5z" />
<glyph unicode="8" horiz-adv-x="1247" d="M86 397q0 74 23.5 143.5t65.5 128t100.5 101.5t130.5 66q-104 49 -169 144t-65 212q0 90 38 162.5t99.5 126t141 82t163.5 28.5q86 0 167 -29.5t143.5 -83t100.5 -129t38 -165.5q0 -121 -70.5 -208t-175.5 -138q70 -25 132.5 -63t109.5 -90t74.5 -117.5t27.5 -143.5 q0 -104 -47 -187t-121.5 -141.5t-170 -90.5t-191.5 -32q-90 0 -186.5 28t-176.5 81t-131 132t-51 183zM170 397q0 -86 45 -149.5t112.5 -106.5t148.5 -64.5t155 -21.5q78 0 157.5 24.5t144 73t104.5 117t40 154.5q0 68 -25.5 123t-68.5 98t-98.5 73t-114.5 48q-14 4 -50 12 t-50 8q-10 0 -16.5 -2t-16.5 -4q-25 -4 -50.5 -5t-49.5 -1q-78 0 -144.5 -29.5t-116 -82t-78 -120t-28.5 -145.5zM256 1192q0 -70 27.5 -127t75 -99t108.5 -65.5t127 -23.5q18 0 36.5 -2.5t37.5 -2.5q4 0 15 3.5t23.5 7.5t23.5 8t15 6q47 18 89.5 46t74 63.5t51 80 t19.5 97.5q0 74 -32 133t-83 102t-116.5 66.5t-133.5 23.5t-131 -22.5t-114.5 -64.5t-82 -100t-30.5 -130z" />
<glyph unicode="9" horiz-adv-x="1247" d="M104 1116q0 102 42 188.5t113 150t161 99t188 35.5q102 0 193.5 -33.5t163.5 -105.5q55 -55 88.5 -122.5t54 -141.5t28 -150.5t7.5 -150.5q0 -90 -22.5 -193.5t-64.5 -205t-103.5 -194.5t-138.5 -164t-168 -113t-195 -42q-18 0 -30.5 11.5t-12.5 29.5q0 35 38 41 q47 8 83 12.5t83 24.5q109 47 192 142.5t140 213t88 244.5t33 238q-4 -10 -6 -19.5t-6 -17.5q-31 -61 -80 -108.5t-107.5 -79t-124 -49t-133.5 -17.5q-100 0 -191 36t-161 99.5t-111 151.5t-41 190zM188 1116q0 -86 35 -157.5t93.5 -125t134 -83t157.5 -29.5q80 0 157 28.5 t137.5 81t96 124t35.5 155.5q0 86 -35.5 158.5t-95 126t-136.5 83t-159 29.5q-80 0 -155.5 -29.5t-134 -82t-94.5 -124t-36 -155.5z" />
<glyph unicode=":" horiz-adv-x="606" d="M170 76q0 37 27.5 62.5t64.5 25.5t65.5 -25.5t28.5 -62.5t-28.5 -62.5t-65.5 -25.5t-64.5 25.5t-27.5 62.5zM170 483q0 37 27.5 63.5t64.5 26.5t65.5 -26.5t28.5 -63.5t-28.5 -62.5t-65.5 -25.5t-64.5 25.5t-27.5 62.5z" />
<glyph unicode=";" horiz-adv-x="251" d="M-190 -272q0 16 12 28.5t28 12.5q41 0 76 19t61.5 50t46 69t29.5 73q23 78 23 149q0 16 12.5 28.5t28.5 12.5t29.5 -12.5t13.5 -28.5q0 -70 -19.5 -147.5t-59.5 -143t-99.5 -108.5t-141.5 -43q-16 0 -28 12t-12 29zM23 481q0 39 28.5 65.5t65.5 26.5t64.5 -27.5 t27.5 -64.5t-27.5 -63.5t-64.5 -26.5t-65.5 25.5t-28.5 64.5z" />
<glyph unicode="&#x3c;" horiz-adv-x="968" d="M203 719q0 6 1 13t5 11l297 387q12 16 33 17q16 0 30.5 -12.5t14.5 -28.5q0 -6 -3 -12.5t-8 -10.5l-280 -364l280 -363q11 -14 11 -26q0 -16 -14.5 -28.5t-30.5 -12.5q-18 0 -33 18l-297 387q-4 4 -5 11.5t-1 13.5z" />
<glyph unicode="=" horiz-adv-x="1779" d="M446 602q0 16 12.5 26.5t28.5 10.5h807q16 0 29.5 -10.5t13.5 -26.5t-13 -27.5t-30 -11.5h-807q-16 0 -28.5 11.5t-12.5 27.5zM446 819q0 39 39 39h809q16 0 29.5 -11.5t13.5 -27.5t-13 -26.5t-30 -10.5h-809q-39 0 -39 37z" />
<glyph unicode="&#x3e;" horiz-adv-x="968" d="M387 338q0 16 8 24l281 363l-281 365q-8 8 -8 24t13.5 28.5t29.5 12.5q20 0 33 -16l299 -389q8 -9 8 -25q0 -10 -8 -23l-299 -389q-12 -16 -33 -16q-16 0 -29.5 12.5t-13.5 28.5z" />
<glyph unicode="?" horiz-adv-x="1091" d="M-12 1188q0 98 43 172t112.5 124t155.5 74.5t174 24.5t175 -24.5t156.5 -74.5t114 -124t44.5 -172q0 -84 -29 -144.5t-74 -105.5t-99 -81t-105.5 -68.5t-93.5 -69.5t-60 -86q-25 -68 -25 -141q0 -39 13.5 -75t13.5 -75q0 -20 -15.5 -33.5t-33.5 -13.5q-20 0 -30.5 14.5 t-10.5 32.5q0 39 -10.5 75t-10.5 75q0 92 21.5 150t60.5 102t94.5 81t120.5 84q37 27 71 54.5t60.5 61.5t42 74t15.5 89q0 80 -37 139t-95.5 97t-131 57.5t-142.5 19.5t-141.5 -19.5t-129 -57.5t-94 -97t-36.5 -139q0 -16 -13.5 -28.5t-29.5 -12.5t-28.5 12t-12.5 29z M389 80q0 39 28.5 64.5t65.5 25.5t64.5 -26.5t27.5 -63.5t-27.5 -64.5t-64.5 -27.5t-65.5 26.5t-28.5 65.5z" />
<glyph unicode="@" horiz-adv-x="1568" d="M102 819q0 141 54.5 263t147.5 212t217 141.5t263 51.5t264.5 -51.5t218.5 -141.5t148 -212t55 -263q0 -59 -18 -120.5t-54 -110.5t-88.5 -81t-119.5 -32q-59 0 -107.5 30t-64.5 89q-45 -55 -108.5 -87t-135.5 -32q-68 0 -127 27.5t-102 74t-67.5 106.5t-24.5 128 t24.5 128t67.5 106.5t102.5 74t126.5 27.5q70 0 132.5 -28.5t107.5 -82.5q0 12 -1 30.5t2 35t11 28t29 11.5q16 0 29.5 -12.5t13.5 -28.5v-457q0 -43 25.5 -64.5t66.5 -21.5q49 0 85 25.5t60.5 64.5t36.5 85t12 87q0 123 -48 229.5t-130 186.5t-191.5 125t-230.5 45 t-229.5 -45t-190 -125t-130 -186.5t-48.5 -229.5t48.5 -230.5t129 -186t189.5 -125t231 -46.5q16 0 29.5 -12t13.5 -29q0 -16 -13 -28t-30 -12q-139 0 -263 52t-217 142t-147.5 212t-54.5 263zM537 811q0 -49 17 -95t49 -82t76 -56.5t95 -20.5t95 20.5t76 56.5t50.5 82 t18.5 95t-18.5 95t-50.5 82t-76 56.5t-95 20.5t-95 -20.5t-76 -56.5t-49 -82t-17 -95z" />
<glyph unicode="A" horiz-adv-x="1501" d="M-41 127q0 55 37 95t86 40q18 0 30.5 -12t12.5 -35q0 -25 -12.5 -34t-27.5 -14t-28.5 -12.5t-13.5 -27.5q0 -18 13.5 -31.5t30.5 -20.5t36.5 -9.5t32.5 -2.5q119 0 186.5 68t100 169t39.5 219t7 218v252q-4 0 -10 1t-12 1q-25 0 -47.5 -9t-40 -20.5t-30.5 -20.5t-21 -9 q-16 0 -28.5 14.5t-12.5 32.5q0 20 14 37q39 42 88 58q38 13 76 12q12 0 24 -1q0 88 4.5 174.5t4.5 174.5q0 57 9 127.5t33.5 133t65.5 105.5t105 43q63 0 99 -45t53.5 -110.5t21.5 -138t4 -124.5q0 -111 -8.5 -217t-16.5 -215q14 -2 28.5 -3t29.5 -1q27 0 48 13.5t37.5 29 t31 29.5t28.5 14q16 0 29.5 -15.5t13.5 -33.5q0 -16 -14 -33q-35 -39 -80 -68.5t-94 -29.5q-16 0 -32 1t-32 3q-4 -68 -7 -136.5t-3 -137.5q0 -70 4 -167.5t26.5 -185.5t70.5 -148.5t136 -60.5q57 0 105.5 27t84.5 71t56.5 102.5t20.5 121.5q0 43 -27 82t-68 39 q-29 0 -39 -16.5t-14 -35t-11 -35t-32 -16.5q-16 0 -28.5 12.5t-12.5 35.5q0 66 41 107.5t96 41.5q39 0 72 -17.5t56.5 -48t37 -69.5t13.5 -80q0 -86 -27 -160.5t-74 -131t-111.5 -90.5t-138.5 -34q-113 0 -177 70t-96 171t-39 219t-7 212q0 70 3 138.5t7 135.5 q-51 14 -100 32t-103 30q0 -91 1 -201v-28q0 -96 -6 -195q-7 -113 -29.5 -217.5t-68.5 -186t-122 -131t-192 -49.5q-31 0 -65 9.5t-63.5 29t-49 48t-19.5 71.5zM573 1073q53 -12 104.5 -29.5t104.5 -31.5q8 106 15.5 212t7.5 212q0 29 -1 80t-10.5 103t-29 90t-53.5 38 q-41 0 -67 -36t-39 -86t-18 -103.5t-5 -87.5q0 -88 -4.5 -180.5t-4.5 -180.5z" />
<glyph unicode="B" horiz-adv-x="1536" d="M-41 1253q0 147 63.5 259t163 187t219 112.5t230.5 37.5q100 0 208.5 -27.5t200 -88t150.5 -155.5t59 -232q0 -94 -24.5 -181.5t-75.5 -160.5q125 -76 205 -201t80 -293q0 -115 -35 -213t-97.5 -171t-148.5 -115t-186 -42q-68 0 -123 30t-95 81t-62.5 117.5t-22.5 140.5 q0 53 17 101t48 83t73 56.5t89 21.5q18 0 30.5 -13.5t12.5 -33.5t-12.5 -33.5t-30.5 -13.5q-61 0 -102 -49t-41 -119q0 -55 15 -105.5t45 -87t70 -59.5t89 -23q84 0 154.5 35t120.5 95.5t79 142.5t29 174q0 72 -20.5 134.5t-56.5 116.5t-83 97t-100 72q-41 -47 -112 -75 t-128 -28q-20 0 -47 9.5t-49.5 27t-39 41t-16.5 51.5q0 27 16.5 50.5t39 40t49.5 26.5t47 10q53 0 108.5 -11t108.5 -30q98 133 98 304q0 47 -12 91t-35 83q-37 70 -93 113.5t-122.5 70.5t-136.5 39t-135 12q-127 0 -242 -45q-66 -23 -128 -67t-111.5 -101t-80 -131 t-30.5 -158q0 -35 17.5 -69.5t44 -61t58.5 -43t62 -16.5q37 0 65.5 22.5t47 55.5t29 73.5t10.5 75.5q0 23 12 35t29 12q18 0 30.5 -12t12.5 -35q0 -55 -16.5 -112.5t-46 -103.5t-73.5 -74.5t-100 -28.5q-47 0 -95 22.5t-86 61.5t-61.5 91t-23.5 107zM41 127q0 55 37 101 t86 46q18 0 30.5 -14t12.5 -35q0 -25 -12.5 -34t-27.5 -13t-28.5 -13t-13.5 -38q0 -18 13.5 -31.5t30.5 -20.5t36.5 -9.5t32.5 -2.5q111 0 176 57.5t99 145.5t43 194.5t9 205.5q0 104 -3 209.5t-3 211.5q0 33 1 92.5t5 130t14.5 143.5t29 132.5t46 97t68.5 37.5 q16 0 29.5 -13.5t13.5 -33.5t-13.5 -33.5t-29.5 -13.5q-18 0 -31.5 -39t-21.5 -98t-13.5 -132t-7.5 -139.5t-2 -121.5v-74q0 -90 2 -179t2 -177q0 -123 -15 -247t-59.5 -223.5t-125 -163t-213.5 -63.5q-31 0 -65 9.5t-63.5 29t-49 48t-19.5 71.5zM795 956q0 -16 24.5 -25 t34.5 -9q41 0 75.5 11t69.5 38q-35 4 -71.5 11t-73.5 7q-10 0 -34.5 -8t-24.5 -25z" />
<glyph unicode="C" horiz-adv-x="1105" d="M-41 1417q0 98 38 178t99.5 137.5t139 88t157.5 30.5q16 0 29.5 -13t13.5 -34q0 -20 -13 -33.5t-30 -13.5q-63 0 -125.5 -23.5t-113 -67.5t-81 -107.5t-30.5 -141.5q0 -82 28.5 -160.5t88.5 -130.5q29 125 82 253t130 233.5t178 172t228 66.5q45 0 81 -21.5t61.5 -56 t39 -80.5t13.5 -94q0 -145 -58.5 -261.5t-151.5 -197.5t-209 -124t-232 -43q-57 0 -103 16q-12 -78 -17 -156.5t-5 -154.5q0 -109 29.5 -217.5t86 -196.5t138 -144.5t186.5 -56.5q57 0 113.5 20.5t102.5 59.5t74.5 96.5t28.5 129.5q0 51 -29.5 94t-76.5 43 q-37 0 -50.5 -14.5t-19.5 -32t-13 -31.5t-30 -14q-16 0 -28.5 14t-12.5 37q0 33 14.5 58.5t37 43t49 25.5t53.5 8q41 0 76 -20.5t60.5 -51t39.5 -73.5t14 -86q0 -92 -35.5 -166t-92 -125t-129 -80t-146.5 -29q-123 0 -220.5 62.5t-165 163t-103 227.5t-35.5 256q0 88 6 175 t22 173q-92 61 -137 167.5t-45 223.5zM238 1079q41 -12 84 -12q98 0 199.5 36t182 104.5t133 168.5t52.5 223q0 27 -7.5 54.5t-21.5 51.5t-34.5 38t-47.5 14q-111 0 -201 -65.5t-157.5 -165t-112.5 -219t-69 -228.5z" />
<glyph unicode="D" horiz-adv-x="1425" d="M-41 113q0 39 20.5 66.5t50 45t64.5 25.5t62 8q68 0 129 -30.5t121 -63.5q45 47 74.5 105.5t48 125t25.5 136t7 135.5q0 113 -4 225.5t-4 224.5q0 29 1 86.5t5 126t14.5 137t29 125t46 93t66.5 36.5q16 0 29.5 -13t13.5 -34q0 -20 -13.5 -33.5t-29.5 -13.5 q-18 0 -30.5 -35t-21 -89t-12.5 -118.5t-7 -125t-3 -109.5v-70q0 -104 3 -206.5t3 -206.5q0 -145 -36 -291t-126 -254q121 -57 248 -58q104 0 183 41t138.5 110t100.5 162t65.5 193.5t36 206t11.5 201.5q0 160 -55.5 301t-150.5 249.5t-219 170t-263 61.5 q-92 0 -187.5 -35.5t-173.5 -103.5t-127 -162t-49 -209q0 -49 12.5 -103t37 -101.5t62.5 -77t87 -29.5q55 0 92 39t58.5 95t29.5 120.5t8 114.5q0 23 12.5 35t28.5 12t29.5 -12.5t13.5 -34.5q0 -72 -13.5 -153t-45 -150.5t-84 -114.5t-129.5 -45q-68 0 -121 37t-89 96 t-54.5 130t-18.5 142q0 135 56.5 247t145.5 191.5t199.5 122.5t219.5 43q156 0 296 -69.5t245.5 -188t168 -278.5t62.5 -340q0 -166 -31 -344t-102.5 -325.5t-190.5 -243t-295 -95.5q-86 0 -162.5 22.5t-154.5 61.5q-57 -43 -124 -63.5t-136 -20.5q-27 0 -62 7.5t-64.5 24.5 t-50 44t-20.5 68zM45 113q0 -16 13.5 -25.5t32 -14.5t36.5 -7.5t29 -2.5q43 0 86 9.5t84 29.5q-41 23 -83 40.5t-87 17.5q-10 0 -28.5 -1t-37 -6.5t-32 -14.5t-13.5 -25z" />
<glyph unicode="E" horiz-adv-x="1067" d="M-41 1540q0 70 43 127t104.5 97t130 62.5t119.5 22.5q16 0 29.5 -13t13.5 -34q0 -23 -13 -35t-30 -12q-33 0 -86 -16.5t-103 -46t-87 -68.5t-37 -84q0 -47 26.5 -78.5t65.5 -53.5t81 -32t73 -14q-2 10 -1 23.5t1 25.5q0 88 42 168t106.5 139.5t143 95t150.5 35.5 q88 0 143.5 -54t55.5 -159q0 -102 -57.5 -170.5t-140.5 -112.5t-175 -64.5t-160 -24.5q6 -16 12.5 -30.5t16.5 -27.5q43 16 88 25.5t90 9.5q20 0 47 -5t51.5 -18.5t41 -35t16.5 -47.5q0 -33 -15.5 -57.5t-38 -41t-50 -24.5t-52.5 -8q-53 0 -103 24.5t-91 63.5 q-113 -57 -178.5 -173t-65.5 -255q0 -109 30.5 -216.5t89 -193.5t141.5 -138.5t185 -52.5q55 0 111.5 25t101.5 69t74 103t29 125q0 43 -27 82t-67 39q-45 0 -61.5 -14.5t-23 -31t-10.5 -29.5t-26 -13q-23 0 -36 20.5t-13 44.5q0 27 19 49.5t46 38t55.5 22.5t49.5 7 q37 0 69.5 -17.5t57 -48t38 -69.5t13.5 -80q0 -88 -35 -164t-92.5 -132t-128 -88t-144.5 -32q-121 0 -219 59.5t-166.5 159t-106.5 223.5t-38 253q0 162 70.5 296t199.5 207q-14 23 -26.5 46.5t-20.5 50.5q-49 4 -109.5 21.5t-112.5 50t-88 82.5t-36 122zM373 1382 q0 -12 2 -26q49 4 129 18.5t155.5 47t131 84.5t55.5 130q0 61 -31 90t-84 29q-49 0 -97 -17.5t-91 -49t-79 -72.5t-61 -90q-12 -27 -21 -54.5t-9 -60.5v-29zM508 1133q16 -20 46 -26.5t52 -6.5q10 0 35 5t25 23q0 6 -8.5 9.5t-18.5 5.5t-21 2h-12q-25 0 -49.5 -4t-48.5 -8z " />
<glyph unicode="F" horiz-adv-x="751" d="M-41 1300q0 131 67.5 233.5t169 173.5t218 108.5t213.5 37.5q61 0 121.5 -9t120 -22.5t120 -22.5t121.5 -9q16 0 29.5 -14.5t13.5 -34.5t-13.5 -33.5t-29.5 -13.5q-61 0 -121.5 10t-120 22.5t-120 22.5t-121.5 10q-78 0 -179.5 -31.5t-191.5 -91t-151.5 -143.5 t-61.5 -193q0 -45 12.5 -88t36 -76.5t57 -54t76.5 -20.5q51 0 83 37t49.5 89t23.5 109.5t6 102.5q0 20 12.5 33.5t28.5 13.5t29.5 -13.5t13.5 -33.5q0 -66 -10 -141.5t-38 -140t-76 -107.5t-122 -43q-61 0 -110 27.5t-84 72.5t-53.5 106.5t-18.5 126.5zM49 121q0 57 38 96 t85 39q16 0 29.5 -13.5t13.5 -33.5q0 -25 -12.5 -34t-27.5 -14t-28.5 -11.5t-13.5 -28.5q0 -18 13.5 -30.5t31 -20t36.5 -9.5t32 -2q106 0 168.5 59.5t96.5 149.5t44 196.5t10 201.5q0 47 -1 90t-1 90q-20 -4 -40.5 -5t-43.5 -1q-10 0 -30.5 4t-40 12t-34 20.5t-14.5 28.5 q0 18 12.5 33.5t28.5 15.5q20 0 39 -11t39 -11q45 0 80 10v111q0 72 3 157.5t11.5 176t24.5 163t45 118.5t70 46q16 0 29.5 -12t13.5 -33q0 -23 -13.5 -35t-29.5 -12q-18 0 -30.5 -35t-20 -87t-11.5 -115.5t-6 -121t-2 -104.5v-59l2 -133q59 25 100 63q-18 27 -27 61.5 t-9 67.5q0 29 5 65t18 69.5t34.5 56t52.5 22.5q47 0 75 -43t28 -92q0 -94 -45 -178q23 4 45 17.5t43 13.5q18 0 30.5 -15t12.5 -35q0 -25 -17.5 -38t-42 -22t-49.5 -13t-39 -4q-29 0 -47 10q-35 -39 -78 -64.5t-90 -42.5q2 -51 3 -100t1 -100q0 -115 -15.5 -239 t-59.5 -227.5t-122.5 -169t-205.5 -65.5q-31 0 -66 8.5t-63.5 27.5t-48 49t-19.5 71zM793 1161q0 -12 2 -27.5t8 -27.5q16 27 25.5 57.5t9.5 63.5q0 8 -1 28.5t-12 20.5q-12 0 -18 -14.5t-9 -34t-4 -39t-1 -27.5z" />
<glyph unicode="G" horiz-adv-x="1265" d="M-41 1411q0 98 38 179t98.5 138.5t137 87t154.5 29.5q16 0 29.5 -12t13.5 -35q0 -20 -13.5 -32.5t-29.5 -12.5q-63 0 -124.5 -23.5t-111 -68.5t-79 -107.5t-29.5 -142.5q0 -82 27.5 -161t87.5 -130q29 123 80 251t126.5 233.5t176 173t225.5 67.5q45 0 80 -21.5t60.5 -57 t37.5 -81t12 -92.5q0 -145 -57 -262t-147 -197.5t-205 -124.5t-232 -44q-25 0 -50 3t-50 11q-12 -76 -17 -153.5t-5 -155.5q0 -109 29.5 -217.5t84.5 -196.5t136 -144.5t184 -56.5q53 0 93 28t68.5 71t43 98t14.5 108q0 45 -1 89.5t-1 89.5q0 20 12 34.5t29 14.5 q16 0 29.5 -14.5t13.5 -34.5q0 -123 5 -243t11 -241q59 53 114.5 114.5t102.5 133.5q14 20 24.5 44t24.5 42q14 20 35 21q16 0 29.5 -16t13.5 -34q0 -8 -8 -22q-63 -119 -148 -216t-198 -190q4 -115 8 -229.5t4 -230.5q0 -109 -6 -233t-36 -230.5t-90 -175t-169 -68.5 q-70 0 -127 41t-98 107.5t-64.5 150.5t-23.5 170q0 162 48 272.5t121.5 193.5t179 156.5t159.5 135.5l18 110q-39 -66 -100.5 -104.5t-130.5 -38.5q-121 0 -216.5 63.5t-162 165t-102 227.5t-35.5 255q0 88 6 175t22 175q-88 59 -134 166.5t-46 224.5zM233 1073 q41 -14 82 -14q98 0 197.5 35.5t180.5 105.5t131 168t50 225q0 27 -7 54.5t-21.5 51t-33.5 39t-46 15.5q-111 0 -199 -66.5t-154.5 -167t-110.5 -220t-69 -226.5zM420 -766q0 -63 17.5 -124.5t46 -113t70.5 -82t91 -30.5q78 0 120 54t62.5 132t24.5 170t4 166 q0 115 -3 226.5t-7 224.5l-139 -117q-57 -45 -109.5 -93t-91.5 -105.5t-62.5 -132.5t-23.5 -175z" />
<glyph unicode="H" horiz-adv-x="1660" d="M-41 1493q0 88 38 153.5t96.5 109.5t129 66.5t135.5 22.5q31 0 68 -12t75 -29.5t73.5 -36t66.5 -32.5q29 51 71 79.5t95 28.5q25 0 52.5 -6t52 -20.5t41 -38t16.5 -58.5q0 -33 -16.5 -56.5t-40 -38.5t-52.5 -22.5t-53 -7.5q-57 0 -121 23q-23 -76 -32 -161t-9 -165v-358 q18 8 36.5 15t37.5 18q-2 14 -2 28.5v28.5v61q0 25 8 53.5t37 28.5q18 0 30.5 -14t12.5 -35q0 -31 -1 -60.5t-1 -58.5l80 35q8 72 23.5 160t41 177t62.5 174t87 149.5t114.5 104.5t146.5 40q45 0 77.5 -28.5t53 -71.5t30 -92.5t9.5 -92.5q0 -125 -55.5 -219t-139.5 -163.5 t-183 -118.5t-187 -84q-2 -27 -3.5 -52.5t-1.5 -50.5q0 -49 6.5 -126.5t20.5 -167t38 -179.5t56.5 -162.5t76.5 -118.5t99 -46q57 0 104.5 26.5t81.5 70.5t52 101.5t18 120.5q0 43 -25.5 82t-66.5 39q-31 0 -41 -16.5t-14 -35t-11 -35t-32 -16.5q-16 0 -28.5 12.5 t-12.5 35.5q0 66 43 107.5t96 41.5q39 0 71 -18.5t55.5 -48t36.5 -68.5t13 -80q0 -82 -24.5 -156.5t-69.5 -132t-107.5 -91.5t-138.5 -34q-74 0 -131 49.5t-99 127t-70.5 176t-46 198t-26 190.5t-8.5 154v35v16.5t3 16.5q-16 -8 -35 -16.5t-35 -14.5v-180q0 -20 -12.5 -35.5 t-30.5 -15.5q-29 0 -36 26.5t-7 55.5v34q0 18 1 40t1 40q-18 -10 -38 -17t-38 -17q-10 -80 -27.5 -171.5t-44 -183.5t-65.5 -177t-90 -150.5t-117.5 -106.5t-150.5 -43q-49 0 -82 29.5t-54.5 74t-31 94.5t-9.5 93q0 129 57.5 225t143.5 167t188.5 122t194.5 86l2 399 q0 92 8.5 181.5t34.5 175.5q-23 10 -55.5 27.5t-67.5 35t-67.5 29.5t-55.5 12q-49 0 -104 -16.5t-102.5 -48t-78 -80.5t-30.5 -115q0 -33 10 -65.5t28.5 -59.5t44.5 -43t56 -16q47 0 88 32.5t41 92.5q0 20 12.5 32.5t28.5 12.5t29.5 -12.5t13.5 -32.5q0 -49 -18.5 -90 t-48 -69t-68.5 -43t-78 -15q-49 0 -90 22.5t-70.5 61t-46 89t-16.5 103.5zM61 293q0 -23 4.5 -55.5t14.5 -62.5t27.5 -52.5t44.5 -22.5q66 0 118 35t92.5 92.5t71.5 131t53.5 150.5t37 149.5t24.5 129.5q-74 -31 -158 -72.5t-156.5 -102t-123 -140.5t-50.5 -180zM725 1702 q45 -12 82 -12h18.5t25.5 3t22.5 9t9.5 18q0 10 -9.5 16.5t-22.5 9.5t-25.5 4t-18.5 1q-25 0 -45.5 -14.5t-36.5 -34.5zM973 1071q70 29 151.5 71t152.5 100t119 136t48 176q0 20 -4 53t-13.5 63t-27 51.5t-41.5 21.5q-63 0 -114.5 -34t-91.5 -90t-69.5 -128t-51 -146.5 t-36 -146.5t-22.5 -127z" />
<glyph unicode="I" horiz-adv-x="778" d="M-41 1491q0 88 38 154.5t96.5 110.5t129 66.5t135.5 22.5q31 0 68 -12t75 -29.5t73.5 -37t66.5 -33.5q29 51 71 79.5t95 28.5q25 0 52.5 -6t52 -21.5t41 -39t16.5 -56.5t-16.5 -56.5t-40 -38.5t-52.5 -21.5t-53 -6.5q-61 0 -121 21q-23 -76 -32 -161t-9 -165 q0 -176 2 -352t2 -354q0 -113 -18.5 -222.5t-62.5 -196.5t-119.5 -141.5t-192.5 -54.5q-31 0 -64.5 9.5t-63.5 29t-49.5 48t-19.5 71.5q0 55 37 95t86 40q18 0 30.5 -13t12.5 -34q0 -27 -12 -36t-27.5 -13t-28 -11.5t-12.5 -27.5t12.5 -32.5t31 -19.5t37 -9.5t30.5 -2.5 q96 0 156.5 48.5t94.5 124t46 168t12 180.5q0 178 -2 354t-2 352q0 90 8.5 181.5t34.5 175.5q-23 10 -55.5 28.5t-67.5 36t-67.5 28.5t-55.5 11q-49 0 -104 -16.5t-102.5 -48t-78 -81t-30.5 -114.5q0 -31 10 -63.5t28.5 -60.5t44.5 -44t56 -16q47 0 88 32.5t41 92.5 q0 20 12.5 33.5t28.5 13.5t29.5 -13.5t13.5 -33.5q0 -49 -18.5 -89t-48 -69t-67.5 -44.5t-79 -15.5q-49 0 -90 24t-70.5 61.5t-46 88t-16.5 103.5zM725 1700q45 -12 82 -12q6 0 18.5 1t25.5 4t22.5 9t9.5 16q0 12 -9.5 17.5t-22.5 8.5t-25.5 4t-18.5 1q-25 0 -45.5 -14.5 t-36.5 -34.5z" />
<glyph unicode="J" d="M-41 1489q0 88 37 153.5t95.5 110.5t129 68.5t137.5 23.5q33 0 70 -13t74 -30.5t72.5 -37t66.5 -33.5q29 51 71 80.5t95 29.5q25 0 53.5 -6t52 -20.5t40 -38t16.5 -58.5q0 -33 -16.5 -57.5t-40 -39.5t-52.5 -22.5t-53 -7.5q-31 0 -61.5 6.5t-59.5 18.5q-23 -76 -32 -163 t-9 -167q0 -305 5 -605t18 -607q66 47 129 108.5t104 134.5q10 16 17.5 33t17.5 33q14 27 35 27q16 0 30.5 -16t14.5 -34q0 -4 -4 -12q-23 -63 -60 -117.5t-83 -102.5t-97 -89l-102 -82q2 -49 4 -97t2 -98v-417q0 -84 -16.5 -185.5t-51.5 -188.5t-87 -145.5t-126 -58.5 q-70 0 -124 53.5t-89 136t-53 181t-18 184.5q0 145 45 253t113.5 189.5t151.5 143t161 119.5q-20 631 -21 1259q0 88 8.5 181.5t34.5 177.5q-23 10 -55.5 27.5t-67.5 34.5t-67.5 30.5t-55.5 13.5q-49 0 -104 -16.5t-102.5 -49t-78 -82t-30.5 -114.5q0 -33 9 -65.5 t27.5 -59.5t44.5 -43t58 -16q47 0 88 32.5t41 92.5q0 20 12.5 32.5t28.5 12.5t29.5 -12.5t13.5 -32.5q0 -49 -18.5 -90.5t-48 -70t-67.5 -44t-79 -15.5q-49 0 -91 22.5t-70.5 62.5t-45 90.5t-16.5 103.5zM197 -678q0 -49 3 -93t13 -87q8 -41 24.5 -86t41 -84t54 -63.5 t62.5 -24.5q51 0 89 50t60.5 121t34 150.5t11.5 139.5v417q0 31 -3 64t-3 68q-61 -45 -130 -97.5t-126.5 -118t-94 -154.5t-36.5 -202zM725 1700q45 -12 82 -12q6 0 18.5 1t25.5 4t22.5 9t9.5 16q0 12 -9.5 17.5t-22.5 8.5t-25.5 4t-18.5 1q-25 0 -45.5 -14.5t-36.5 -34.5z " />
<glyph unicode="K" horiz-adv-x="1517" d="M-43 1491q0 86 38 152.5t96.5 111.5t130 66.5t136.5 21.5q33 0 70 -12t75 -29.5t73.5 -38t66.5 -34.5q29 51 70 82.5t94 31.5q25 0 52.5 -7t52 -21.5t40 -39t15.5 -57.5t-15.5 -56.5t-40 -38.5t-52.5 -22.5t-52 -7.5q-63 0 -125 21q-23 -74 -30 -160t-7 -164 q0 -178 1 -354t1 -352q0 -111 -17.5 -220.5t-61.5 -197.5t-119.5 -142.5t-192.5 -54.5q-31 0 -64.5 9.5t-63.5 28t-49.5 48t-19.5 70.5q0 57 36 102t87 45q18 0 30.5 -14t12.5 -35q0 -27 -12 -34t-27.5 -12t-29 -14t-13.5 -38q0 -16 14.5 -28.5t33 -19.5t37 -11.5t28.5 -4.5 q96 0 155.5 48.5t93.5 124t46 168t12 182.5q0 176 -1 352t-1 354q0 86 10.5 179.5t36.5 175.5q-23 12 -56.5 28.5t-69.5 33.5t-68.5 28.5t-55.5 11.5q-47 0 -102 -14.5t-102.5 -46t-79 -81t-31.5 -114.5q0 -33 9 -65.5t27.5 -59.5t44.5 -43t58 -16q47 0 87 32.5t40 90.5 q0 23 12.5 35t30.5 12q41 0 41 -47q0 -49 -17.5 -88t-47 -69t-67.5 -45.5t-79 -15.5q-49 0 -90 24t-71.5 62.5t-47 89t-16.5 103.5zM647 952q0 27 16.5 48.5t39 36t48 20.5t46.5 6q39 0 77.5 -8t73.5 -29q35 70 48.5 161t13.5 173q0 92 24.5 178t70.5 153.5t112.5 109.5 t152.5 42q49 0 87 -21.5t62.5 -58.5t37 -85t12.5 -99q0 -20 -12.5 -34.5t-30.5 -14.5t-29.5 14.5t-11.5 34.5q0 31 -6 61.5t-19.5 55t-35 40t-54.5 15.5q-68 0 -120 -36t-86 -91t-51 -124.5t-17 -139.5q0 -98 -17.5 -202.5t-62.5 -186.5q27 -33 40 -67t19 -70.5t6 -75.5v-80 v-338q0 -47 13.5 -96t38 -90t60.5 -67t83 -26q57 0 105.5 28t83 71t54 101t19.5 122q0 43 -25.5 81t-66.5 38q-31 0 -40 -16.5t-13 -36t-11.5 -35t-31.5 -15.5q-18 0 -30.5 12.5t-12.5 32.5q0 66 42 108t97 42q39 0 70.5 -17.5t55 -46t37 -67.5t13.5 -80q0 -84 -26.5 -158.5 t-72.5 -131t-109.5 -90.5t-137.5 -34q-66 0 -117 33t-87 85t-55.5 118.5t-19.5 134.5q0 100 1 200.5t1 200.5q0 43 -8 82t-30 72q-35 -35 -76 -51.5t-88 -16.5q-20 0 -46 9.5t-49.5 26t-39 39t-15.5 50.5zM721 1700q47 -12 86 -12q4 0 16.5 1t25.5 4t23.5 9t10.5 16 q0 8 -10.5 14.5t-23.5 9.5t-25.5 4t-16.5 1q-49 0 -86 -47zM739 954q0 -14 23.5 -23t34.5 -9h3q51 0 89 30q-45 18 -92 19q-8 0 -33 -2t-25 -15z" />
<glyph unicode="L" horiz-adv-x="1110" d="M-41 113q0 43 21.5 69.5t52 42t66.5 22.5t63 7q68 0 120 -24.5t111 -59.5q35 45 54.5 103.5t30.5 122t14.5 128t3.5 119.5q0 84 -6.5 167t-12.5 167q-49 -6 -96 -6q-82 0 -148.5 34.5t-114.5 95t-74 141.5t-26 171q0 98 38 178t99.5 136.5t139.5 87t158 30.5 q16 0 29.5 -13t13.5 -34q0 -20 -13.5 -33.5t-29.5 -13.5q-63 0 -126 -22.5t-113 -67.5t-81 -107.5t-31 -140.5q0 -70 19.5 -133t55.5 -112.5t88 -77t116 -27.5q23 0 46.5 2t45.5 8q-4 88 -8 173t-4 175q0 94 26.5 173t74.5 133.5t117 85t152 30.5q47 0 84 -19.5t63 -54 t40 -79.5t14 -95q0 -117 -39 -215t-103.5 -174t-150.5 -128t-178 -81q6 -88 12.5 -177t6.5 -177q0 -66 -4.5 -134.5t-15.5 -136t-32.5 -131t-56.5 -116.5q68 -33 139.5 -47.5t145.5 -14.5t132 42t101 93.5t73 93.5t48 42q16 0 29.5 -13.5t13.5 -31.5q0 -12 -10 -29 q-35 -53 -76 -104.5t-90 -92t-104.5 -66.5t-116.5 -26q-92 0 -177 18.5t-169 65.5q-51 -47 -112.5 -65.5t-125.5 -18.5q-25 0 -61.5 8.5t-70.5 26t-57.5 44t-23.5 63.5zM43 117q16 -27 59 -40.5t70 -13.5q39 0 78 9t74 32q-41 23 -79 38.5t-83 15.5h-31q-18 0 -36.5 -4 t-34 -12.5t-17.5 -24.5zM545 1421q0 -82 3 -164.5t7 -164.5q78 25 148.5 69.5t125 108t87 145.5t32.5 180q0 61 -29.5 107.5t-87.5 46.5q-135 0 -210.5 -87t-75.5 -241z" />
<glyph unicode="M" horiz-adv-x="1906" d="M-41 127q0 61 38 98t89 37q18 0 30.5 -12t12.5 -35q0 -27 -13.5 -35t-29.5 -13t-29.5 -12.5t-13.5 -29.5q0 -20 11.5 -32.5t27.5 -18.5t34.5 -8.5t30.5 -2.5q82 0 139.5 33t97.5 89.5t62.5 130t32.5 155.5q35 274 56.5 546.5t39.5 547.5q2 41 7.5 88t18.5 89t40 71.5 t72 29.5q39 0 59.5 -22.5t29.5 -54t10 -68.5t3 -70q18 -334 34.5 -666.5t39.5 -666.5q2 -20 2 -39v-41v-35q0 -25 3 -52.5t8 -48t18 -20.5q16 0 23 32t11 73t5.5 79t1.5 52q16 336 35.5 669.5t50.5 667.5q4 31 9 69t18 68.5t36 52t57 21.5q43 0 70 -21.5t42 -55t20.5 -74.5 t5.5 -80q0 -49 -5.5 -96.5t-5.5 -94.5q0 -201 -20.5 -398.5t-20.5 -397.5q0 -70 4.5 -167.5t27 -185.5t70.5 -148.5t136 -60.5q57 0 105.5 27t84 71t56 102.5t20.5 119.5q0 45 -26.5 84t-67.5 39q-29 0 -38 -16.5t-14 -36t-12.5 -35t-31.5 -15.5q-16 0 -28.5 12.5 t-12.5 33.5q0 66 41 107.5t96 41.5q39 0 71.5 -17.5t56.5 -47t37 -68.5t13 -82q0 -84 -26.5 -158.5t-73.5 -130t-111.5 -89.5t-138.5 -34q-113 0 -177.5 69t-96 170t-39 218t-7.5 213q0 199 19.5 390.5t19.5 389.5q0 53 5.5 103.5t5.5 103.5q0 16 -1 38t-6.5 40t-16.5 30.5 t-30 12.5q-10 0 -17 -16.5t-12 -37t-7.5 -42t-2.5 -29.5q-29 -334 -48 -667.5t-38 -667.5q-2 -39 -3 -93.5t-12 -105.5t-34.5 -88t-72.5 -37q-45 0 -69 32t-33 76t-9 93v88q0 8 -1 16.5t-1 18.5q-16 233 -26.5 465.5t-22.5 466.5q-4 100 -12.5 198.5t-12.5 198.5v29 q0 20 -2 43.5t-6 41t-12 17.5q-18 0 -28.5 -24.5t-16.5 -57.5t-8.5 -63.5t-2.5 -44.5q-16 -279 -38.5 -553.5t-57.5 -548.5q-12 -100 -42 -189.5t-80 -155t-121.5 -103.5t-170.5 -38q-31 0 -64.5 8.5t-61 27t-45 48t-17.5 72.5z" />
<glyph unicode="N" horiz-adv-x="1284" d="M-41 127q0 55 37 95t86 40q16 0 28.5 -13t12.5 -34q0 -27 -12.5 -36t-26.5 -13t-27.5 -11.5t-13.5 -27.5t13.5 -32.5t29.5 -19.5t35.5 -9.5t32.5 -2.5q80 0 134 33t89 87.5t51 128t23 153.5q18 283 21 561.5t3 560.5q0 35 3 80t15.5 83t36 64.5t64.5 26.5 q37 0 58.5 -20.5t33.5 -51t17.5 -66.5t9.5 -69q45 -336 87 -667.5t85 -667.5l7 -56t13 -81t20.5 -72t30.5 -31q25 0 38.5 21.5t20.5 52.5t8 63.5t1 51.5q0 291 -2 576.5t-2 576.5q0 82 8 159.5t36 141t80 101.5t138 38q66 0 120 -28.5t96 -77.5t65.5 -114.5t23.5 -137.5 q0 -49 -19.5 -88t-51 -64.5t-69.5 -39t-77 -13.5q-23 0 -46.5 6t-42.5 20.5t-31.5 36t-12.5 50.5q0 23 12.5 35t26.5 12q23 0 28 -10.5t10 -21.5t15 -22.5t41 -11.5q20 0 43 7t43.5 20.5t33.5 34t13 49.5q0 53 -17.5 101t-46 84t-69.5 58.5t-88 22.5q-61 0 -97 -31.5 t-54.5 -80t-23.5 -108t-5 -114.5q0 -285 2 -566.5t2 -565.5q0 -43 -5 -97.5t-19.5 -103.5t-44 -83t-81.5 -34q-43 0 -71.5 35t-45 86t-23.5 106.5t-13 92.5q-45 334 -88 665.5t-84 667.5q0 6 -2 28.5t-7.5 45t-11.5 40t-16 17.5q-14 0 -22.5 -24.5t-11.5 -56.5t-2 -61.5 t1 -43.5q0 -276 -4 -553t-23 -553q-6 -100 -30.5 -188.5t-68.5 -155t-112.5 -105.5t-166.5 -39q-31 0 -64 9.5t-62.5 29t-49 48t-19.5 71.5z" />
<glyph unicode="O" horiz-adv-x="1349" d="M-41 907q0 133 19.5 259t63.5 239t115.5 208t174.5 163q8 8 22 8q16 0 28.5 -17.5t12.5 -35.5q0 -23 -22 -37q-29 -25 -57.5 -47.5t-55.5 -49.5q-61 -63 -102 -145t-66.5 -172t-37 -186.5t-11.5 -186.5q0 -156 34 -306t104.5 -269t179 -194t260.5 -75q143 0 251.5 81 t179 206t106.5 277.5t36 298.5q0 78 -13.5 171t-41 184t-69.5 177t-96 151.5t-123 105.5t-151 40q-78 0 -136 -33.5t-99 -89t-61.5 -130.5t-20.5 -159q0 -41 22.5 -75.5t59.5 -34.5q25 0 40 18.5t25.5 46t14.5 57t4 50.5q0 23 12 35t29 12q16 0 29.5 -12.5t13.5 -34.5 q0 -43 -10.5 -89t-31 -86t-52 -66.5t-74.5 -26.5q-37 0 -66.5 18.5t-52 46t-35 64.5t-12.5 77q0 102 27.5 194.5t80 163.5t126 110.5t167.5 39.5q141 0 250 -91t182.5 -230t110.5 -302t37 -302q0 -168 -42 -338t-125 -308.5t-207 -225.5t-285 -87q-170 0 -294 81t-206 214 t-122 301t-40 344z" />
<glyph unicode="P" horiz-adv-x="800" d="M-41 1327q0 86 28.5 156.5t78 127t114 100.5t134 71.5t141 42t135.5 14.5q102 0 211.5 -22.5t201 -79t150.5 -150.5t59 -237q0 -82 -20.5 -161t-61 -142.5t-100 -102.5t-139.5 -39q-29 0 -57.5 10.5t-52 31t-39 50t-15.5 64.5q0 20 12.5 33.5t28.5 13.5t23.5 -6 t10.5 -14.5t4 -19.5t7 -24q10 -23 32.5 -34t45.5 -11q61 0 105 32t74 83t44 113.5t14 122.5q0 119 -53 196.5t-133 120.5t-174 60.5t-178 17.5q-53 0 -107.5 -9.5t-107.5 -27.5q-55 -18 -113.5 -52t-108 -82t-80 -110.5t-30.5 -136.5q0 -76 35 -132t106 -56q35 0 63.5 27.5 t50 68.5t34 85t12.5 77q0 20 12.5 33.5t28.5 13.5t29.5 -13.5t13.5 -33.5q0 -53 -17.5 -116.5t-50 -116t-77.5 -87.5t-99 -35q-53 0 -95 24t-70.5 61.5t-44 89t-15.5 110.5zM4 127q0 55 36 95t85 40q18 0 30.5 -12t12.5 -35q0 -25 -12.5 -34t-27.5 -14t-27.5 -12.5 t-12.5 -27.5q0 -18 12.5 -31.5t31 -20.5t36.5 -9.5t31 -2.5q111 0 176 57.5t99 145.5t44 193.5t10 204.5q0 113 -3 220t-3 220q0 31 1 88t5 124.5t14.5 138.5t29 129t46 94t66.5 36q16 0 29.5 -12t13.5 -35q0 -20 -13.5 -32.5t-29.5 -12.5q-18 0 -31.5 -39t-21.5 -98.5 t-13.5 -131t-7.5 -138t-2 -119.5v-78q0 -88 2 -176t2 -178q0 -121 -15 -245t-59 -223.5t-125 -162t-214 -62.5q-31 0 -65 9.5t-63.5 28t-48 47t-18.5 71.5z" />
<glyph unicode="Q" horiz-adv-x="1349" d="M-41 901q0 133 19.5 258t63.5 236.5t115.5 206t174.5 163.5q8 6 22 7q16 0 28.5 -16.5t12.5 -35.5q0 -25 -22 -39q-29 -23 -57.5 -45t-55.5 -49q-61 -63 -102 -144t-66.5 -171t-37 -185.5t-11.5 -185.5q0 -154 34 -303t104.5 -267t179 -193t260.5 -75q143 0 251.5 80 t179 204t106.5 276.5t36 296.5q0 78 -13.5 170t-41 183t-69.5 176t-96 150.5t-123 104.5t-151 39q-78 0 -136 -33t-99 -88t-61.5 -130t-20.5 -157q0 -41 22.5 -75.5t59.5 -34.5q25 0 40 18.5t25.5 46t14.5 57t4 50.5q0 20 12 33.5t29 13.5q16 0 29.5 -13.5t13.5 -33.5 q0 -43 -10.5 -89t-31 -86t-52 -66t-74.5 -26q-37 0 -66.5 17.5t-52 46.5t-35 64.5t-12.5 76.5q0 102 27.5 193.5t80 161t126 110.5t167.5 41q141 0 250 -91t182.5 -229.5t110.5 -300t37 -300.5q0 -168 -42 -336t-125 -305.5t-207 -223.5t-285 -86q-170 0 -294 80t-206 212 t-122 299t-40 341zM1159 -823l64 2629q10 37 41 37q18 0 30.5 -15.5t12.5 -33.5q0 -4 -1 -6t-1 -4l-64 -2628q-6 -37 -39 -37q-16 0 -29.5 14.5t-13.5 32.5v11z" />
<glyph unicode="R" horiz-adv-x="1806" d="M-41 1249q0 150 64.5 262.5t166 188.5t223.5 112.5t234 36.5q100 0 207 -28.5t196 -91t146 -158.5t57 -230q0 -111 -34.5 -217t-108.5 -178q47 -53 68.5 -122.5t21.5 -143.5v-338q0 -47 12.5 -96t37 -90t60.5 -67t83 -26q57 0 105 27t84 71t55.5 102.5t19.5 119.5 q0 45 -26.5 83t-67.5 38q-29 0 -38 -16.5t-14 -36t-12.5 -36t-32.5 -16.5q-16 0 -28.5 13.5t-12.5 33.5q0 66 41 108t97 42q37 0 69.5 -17.5t57 -46t38 -67.5t13.5 -82q0 -84 -26.5 -158.5t-73 -130t-111 -89.5t-137.5 -34q-63 0 -115.5 33t-87.5 85t-54.5 118.5 t-19.5 134.5v338q0 57 -16.5 110.5t-50.5 92.5q-41 -25 -92.5 -42.5t-98.5 -17.5q-20 0 -48 10.5t-52.5 29t-42 42t-17.5 51.5q0 27 16.5 50.5t41 40t52.5 25.5t48 9q53 0 103.5 -19.5t93.5 -51.5q31 25 53 63.5t35.5 84.5t20.5 93t7 90q0 72 -24.5 132.5t-66.5 108.5 t-95 82t-111 54q-53 20 -110 29.5t-115 9.5q-94 0 -200.5 -31.5t-196.5 -95t-148.5 -158t-58.5 -223.5q0 -37 17.5 -70.5t43 -59t58.5 -42t63 -16.5q37 0 65.5 22.5t47 55t29 71.5t10.5 78q0 20 12 32.5t29 12.5q16 0 29.5 -12t13.5 -33q0 -57 -16.5 -114.5t-46 -102.5 t-73.5 -74.5t-100 -29.5q-47 0 -95 23.5t-86 62.5t-61.5 90t-23.5 106zM37 127q0 55 37 95t86 40q18 0 30.5 -12t12.5 -35q0 -25 -12.5 -34t-28 -14t-28.5 -12.5t-13 -27.5q0 -18 13 -31.5t30.5 -20.5t37 -9.5t31.5 -2.5q111 0 176.5 57.5t99.5 147.5t44 196.5t10 203.5 q0 98 -3 197.5t-3 197.5q0 33 1 93.5t6 133t14.5 147t28 136t47 101.5t69.5 40q16 0 29.5 -12t13.5 -35q0 -20 -13.5 -32.5t-29.5 -12.5q-18 0 -32.5 -41t-23 -105.5t-13.5 -141.5t-7 -149.5t-2 -129.5v-82q0 -76 2 -153t2 -152q0 -121 -15.5 -246t-60.5 -225.5t-125.5 -163 t-214.5 -62.5q-31 0 -64.5 9.5t-63 28t-49 47t-19.5 71.5zM791 954q0 -8 10 -15t24.5 -11t26.5 -7t18 -3q27 0 60.5 10t56.5 22q-63 41 -127 41q-6 0 -17.5 -2t-22.5 -8t-20 -13t-9 -14z" />
<glyph unicode="S" horiz-adv-x="796" d="M-41 127q0 55 37 95t86 40q18 0 30.5 -13t12.5 -34q0 -27 -12.5 -36t-27.5 -13t-28.5 -11.5t-13.5 -27.5t13.5 -32.5t30.5 -19.5t36.5 -9.5t32.5 -2.5q111 0 179 57.5t105 144.5t49.5 194.5t12.5 208.5q0 78 -4 153.5t-9 149.5q-16 -2 -30 -2h-29q-82 0 -148.5 34.5 t-114.5 96t-73.5 141.5t-25.5 172q0 98 37.5 177t99 136.5t139.5 88t158 30.5q16 0 29.5 -13t13.5 -34q0 -20 -13.5 -33.5t-29.5 -13.5q-63 0 -126 -23.5t-113 -67.5t-80.5 -107.5t-30.5 -139.5q0 -70 19 -133t55 -112.5t88.5 -77t115.5 -27.5h29q14 0 28 2q0 76 4.5 164 t18.5 175t41 167t71 141.5t108.5 98t154.5 36.5q43 0 82 -21.5t67.5 -56t45 -80t16.5 -94.5q0 -125 -44 -226t-118 -179t-167 -130t-192 -75q2 -80 6.5 -158.5t4.5 -158.5q0 -123 -17.5 -248t-65.5 -224.5t-131 -163t-216 -63.5q-31 0 -65 9.5t-63.5 29t-49 48t-19.5 71.5z M573 1081q82 20 160 64.5t139.5 110t99.5 150.5t38 189q0 27 -9.5 55.5t-27 51t-40 37t-48.5 14.5q-74 0 -126 -32.5t-86 -87t-54.5 -125t-29.5 -145.5t-12.5 -148.5t-3.5 -133.5z" />
<glyph unicode="T" horiz-adv-x="1103" d="M-172 1487q0 66 39 128t99.5 111.5t136 79t149.5 29.5q43 0 75.5 -7t59.5 -20.5t50.5 -32t49.5 -40.5q59 51 130 78.5t147 27.5q33 0 67.5 -12t63.5 -34.5t47.5 -55.5t18.5 -74t-15.5 -71.5t-41 -52t-57.5 -33t-63 -11.5q-86 0 -155.5 32t-136.5 85 q-78 -82 -133.5 -192.5t-90.5 -234.5t-51 -253t-16 -246q0 -127 28.5 -240.5t88 -198.5t149.5 -135.5t211 -50.5q57 0 107.5 26t88 70t59 101t21.5 123q0 45 -25.5 83t-66.5 38q-43 0 -57 -14.5t-19.5 -32t-10.5 -31.5t-32 -14q-16 0 -28.5 13t-12.5 36q0 35 15.5 60.5 t39 43t51.5 25.5t54 8q39 0 71 -18.5t55.5 -48t36.5 -68.5t13 -80q0 -84 -28.5 -158.5t-77.5 -132t-114.5 -90.5t-139.5 -33q-139 0 -243.5 56.5t-175.5 153.5t-106.5 228.5t-35.5 280.5q0 125 17.5 261t55 266.5t95 247t137.5 206.5q-12 10 -30.5 26.5t-40 31t-47 24.5 t-54.5 10q-53 0 -112.5 -23.5t-108.5 -62.5t-82 -86t-33 -94q0 -27 12.5 -52.5t42.5 -29.5q35 0 50.5 19.5t25.5 44t21.5 44t39.5 19.5q20 0 28.5 -11t8.5 -26q-6 -31 -22.5 -60.5t-41 -52t-55 -37t-67.5 -14.5q-68 4 -98.5 48.5t-30.5 99.5zM559 1677q53 -41 107.5 -64.5 t117.5 -23.5q29 0 61 19.5t32 56.5q0 20 -12.5 35.5t-30 26t-37 16.5t-33.5 6q-109 0 -205 -72z" />
<glyph unicode="U" horiz-adv-x="1902" d="M-41 1368q0 78 20.5 161t60.5 151.5t99.5 113.5t134.5 45q63 0 108.5 -37t75 -91t43 -120.5t13.5 -128.5v-964q0 -76 21.5 -154t61.5 -139.5t98.5 -101.5t131.5 -40q74 0 132.5 35t100.5 92.5t63.5 131t21.5 151.5v287v1036q0 20 12 33.5t29 13.5q16 0 29.5 -13t13.5 -34 v-1036v-377q0 -59 19.5 -117.5t54 -103.5t83 -72t103.5 -27q57 0 105 27t84 71t55.5 102.5t19.5 119.5q0 45 -26.5 84t-67.5 39q-29 0 -39 -16.5t-14 -36t-11.5 -35t-31.5 -15.5q-16 0 -28.5 12.5t-12.5 33.5q0 66 41 107.5t96 41.5q39 0 71.5 -17.5t56 -47t37 -68.5 t13.5 -82q0 -84 -26.5 -158.5t-72.5 -130t-110.5 -89.5t-138.5 -34q-106 0 -191.5 69t-126.5 181q-51 -117 -139 -183.5t-205 -66.5q-92 0 -165.5 46t-125 121t-79 170t-27.5 190v964q0 39 -8 87t-26.5 93.5t-48.5 74t-73 28.5q-57 0 -100 -39t-71.5 -95.5t-44 -122 t-15.5 -120.5q0 -37 6 -89t22.5 -101.5t44 -83t70.5 -33.5q35 0 60.5 23.5t42 57.5t25 71.5t8.5 70.5q0 23 12 35t28 12t30 -12t14 -35q0 -53 -14.5 -109.5t-42 -102.5t-68.5 -75.5t-95 -29.5q-63 0 -107 41t-70.5 100t-38 131t-11.5 129z" />
<glyph unicode="V" horiz-adv-x="1351" d="M-41 1368q0 78 20.5 161t60.5 151.5t99.5 112.5t134.5 44q63 0 108.5 -36t75 -91t43 -121.5t13.5 -126.5v-964q0 -78 21.5 -155t61.5 -138.5t98.5 -101.5t131.5 -40q82 0 140.5 44.5t97.5 116t63.5 160.5t37 183.5t16.5 182.5t4 153q0 145 -9.5 287.5t-37.5 282.5 q-18 -2 -36 -3.5t-36 -1.5q-41 0 -89 13.5t-89 39t-67.5 66.5t-26.5 99q0 39 17 68.5t45 48t59.5 26.5t62.5 8q47 0 82 -23.5t61.5 -60.5t45 -83t30.5 -87q57 18 96 46t86 69q16 14 29 14q16 0 29.5 -15.5t13.5 -33.5q0 -27 -29.5 -53.5t-67.5 -51t-77 -42t-57 -25.5 q31 -143 40 -291.5t9 -296.5q0 -82 -5 -183.5t-22.5 -204.5t-47.5 -201.5t-79 -174.5t-119.5 -123t-169.5 -47q-92 0 -165.5 47t-125 122t-79 169t-27.5 191v964q0 39 -8 87t-26.5 92.5t-48.5 74t-73 29.5q-57 0 -100 -39t-71.5 -96.5t-44 -123t-15.5 -118.5q0 -37 7 -89 t23.5 -101.5t45 -83t71.5 -33.5q35 0 59.5 22.5t41 56.5t25 72.5t8.5 71.5q0 20 13 33.5t30 13.5q16 0 28.5 -13t12.5 -34q0 -53 -13.5 -109.5t-41 -103.5t-68.5 -75.5t-95 -28.5q-63 0 -108 41t-71.5 100t-39 131t-12.5 129zM879 1686q0 -33 21.5 -56.5t51 -38t61 -21.5 t54.5 -7h25q12 0 24 2q-8 25 -19.5 56.5t-27.5 58t-38.5 46t-51.5 19.5q-12 0 -28.5 -3t-33 -8t-27.5 -17.5t-11 -30.5z" />
<glyph unicode="W" horiz-adv-x="2082" d="M-41 1368q0 78 20.5 161t60.5 151.5t99.5 112.5t134.5 44q63 0 108.5 -36t75 -91t43 -121.5t13.5 -126.5v-964q0 -78 21.5 -155t61.5 -138.5t98.5 -101.5t131.5 -40q74 0 130.5 32t96.5 84t62.5 123t26.5 149q3 56 3 111v27q-1 68 -1 140v1067q0 20 12 32.5t29 12.5 q16 0 29.5 -12t13.5 -33v-1036v-326q0 -74 22.5 -142.5t62.5 -118.5t95 -80t123 -30q82 0 140.5 44.5t98 116t63.5 160.5t37 183.5t17 182.5t4 153q0 145 -10 287.5t-39 282.5q-16 -2 -34.5 -3.5t-34.5 -1.5q-41 0 -89.5 13.5t-89.5 39t-67.5 66.5t-26.5 99q0 39 17.5 68.5 t44 48t58.5 26.5t62 8q47 0 82 -23.5t62.5 -59.5t46 -81t31.5 -90q57 18 96 46t86 69q16 14 29 14q16 0 29.5 -15.5t13.5 -33.5q0 -27 -30 -53.5t-68 -51t-76.5 -42t-57.5 -25.5q31 -143 40 -291.5t9 -296.5q0 -82 -6 -183.5t-22.5 -204.5t-47 -201.5t-79.5 -174.5 t-120 -123t-169 -47q-123 0 -213 74t-137 203q-49 -127 -140.5 -202t-214.5 -75q-92 0 -165.5 47t-125 122t-79 169t-27.5 191v964q0 39 -8 87t-26.5 92.5t-48.5 74t-73 29.5q-57 0 -100 -39t-71.5 -96.5t-44 -123t-15.5 -118.5q0 -35 6 -87t21.5 -101.5t43 -84t70.5 -34.5 q35 0 59.5 22.5t41 56.5t24.5 72.5t8 71.5q0 20 13.5 33.5t29.5 13.5t28.5 -13t12.5 -34q0 -53 -13 -109.5t-41 -103.5t-68.5 -75.5t-94.5 -28.5q-63 0 -107 41t-69.5 101t-37 131t-11.5 128zM1585 1686q0 -33 21.5 -56.5t51.5 -38t61.5 -21.5t54.5 -7h22q13 0 25 2 q-8 25 -19.5 56.5t-28 58t-39 46t-51.5 19.5q-12 0 -28.5 -3t-31.5 -8t-26.5 -17.5t-11.5 -30.5z" />
<glyph unicode="X" horiz-adv-x="1636" d="M-41 1497q0 70 27.5 134.5t80 112.5t125 76.5t158.5 28.5t152.5 -41t115 -107.5t81 -150.5t53 -169t30 -161.5t9.5 -132.5v-40q10 53 22 147q20 88 49 177t72 174t100.5 149.5t131 104.5t167.5 40q51 0 89 -28.5t61.5 -71.5t34 -92.5t10.5 -92.5q0 -125 -63.5 -219 t-160 -163.5t-210 -118.5t-213.5 -84q-4 -27 -5.5 -52.5t-1.5 -50.5q0 -49 7.5 -126.5t24 -167t44 -179.5t64.5 -162.5t88 -118.5t115 -46q66 0 120 26.5t92.5 70.5t59 101.5t20.5 120.5q0 43 -28.5 82t-75.5 39q-37 0 -48 -16.5t-16 -35t-13.5 -35t-37.5 -16.5 q-18 0 -31.5 12.5t-13.5 35.5q0 66 49 107.5t111 41.5q43 0 80 -18.5t63.5 -48t42 -68.5t15.5 -80q0 -82 -28 -156.5t-80 -132t-123.5 -91.5t-157.5 -34t-152 49.5t-114 127t-80.5 176t-53 198t-26 182t-5.5 156.5v60q-10 -76 -28 -166q-16 -102 -48 -208t-78 -205 t-107.5 -175t-141.5 -123t-180 -47q-53 0 -95 33.5t-67 84t-36 109t-11 107.5q0 147 67.5 257.5t171 192.5t226.5 140.5t231 80.5q2 23 3 44.5t1 41.5q0 43 -7 109t-23.5 141.5t-43 152.5t-65.5 139.5t-90 101t-115 38.5q-66 0 -121 -22.5t-94 -60t-59.5 -86t-20.5 -103.5 q0 -37 29 -69.5t76 -32.5q37 0 48 14t16 29.5t14.5 30t37.5 14.5q18 0 33 -11.5t15 -29.5q0 -55 -51.5 -91t-112.5 -36q-45 0 -81 15.5t-62.5 41t-42 58t-15.5 67.5zM96 330q0 -23 6.5 -62t16.5 -73.5t31.5 -60t52.5 -25.5q78 0 141.5 39.5t112.5 106.5t86 150.5t62.5 172 t43 172.5t29.5 149q-88 -35 -187.5 -84t-186.5 -117.5t-147.5 -160t-60.5 -207.5zM891 1071q80 29 174 71t175 100t136.5 136t55.5 176q0 20 -4.5 53t-15.5 63t-30.5 51.5t-48.5 21.5q-72 0 -131 -34t-105 -90t-80 -128t-58.5 -146.5t-41 -146.5t-26.5 -127z" />
<glyph unicode="Y" horiz-adv-x="1511" d="M-41 1366q0 78 20.5 160t60.5 151.5t99.5 114.5t134.5 45q63 0 108.5 -37t75 -93t43 -122.5t13.5 -128.5v-967q0 -76 21.5 -154.5t61.5 -141t98.5 -102.5t131.5 -40q74 0 132.5 35t100.5 93.5t63.5 133t21.5 152.5v287v1044q0 18 12 31.5t29 13.5q18 0 30.5 -13t12.5 -34 v-1767q70 53 119 119.5t88 150.5q6 10 13 29.5t16.5 38t20.5 32t25 13.5q16 0 30.5 -15t14.5 -33q0 -6 -4 -14q-100 -285 -323 -450v-275q0 -137 -23.5 -286.5t-77 -274.5t-138.5 -207t-208 -82q-63 0 -115.5 39t-87 99.5t-54 139.5t-19.5 158q0 111 30.5 199t82 157.5 t117 125t137 100.5t142 86t130.5 84v195q-53 -94 -135 -146.5t-183 -52.5q-92 0 -165.5 47t-125 123t-79 172t-27.5 190v967q0 41 -8 90t-26.5 93t-48.5 75t-73 31q-57 0 -100 -39t-71.5 -96.5t-44 -124t-15.5 -119.5q0 -37 6 -90t22.5 -102.5t44 -84t70.5 -34.5 q35 0 59.5 23.5t41 57t24.5 72.5t8 72q0 20 13.5 34.5t29.5 14.5t28.5 -14.5t12.5 -34.5q0 -53 -13 -109.5t-40.5 -103.5t-68.5 -75.5t-95 -28.5q-63 0 -107 40.5t-70.5 102t-38 131.5t-11.5 129zM590 -791q0 -55 13 -112.5t38 -104.5t60.5 -76.5t80.5 -29.5q102 0 172 74.5 t112 184.5t60.5 238t18.5 240v213q-72 -49 -168 -104.5t-182 -126t-145.5 -166.5t-59.5 -230z" />
<glyph unicode="Z" horiz-adv-x="1320" d="M-41 109q0 41 19.5 67.5t48 43t61.5 23.5t62 7q45 0 88 -9.5t86 -21.5q53 88 91 186.5t85 190.5q35 72 69.5 145.5t69.5 147.5q-35 12 -66 12q-41 0 -74.5 -19.5t-47.5 -19.5q-16 0 -28.5 12.5t-12.5 30.5q0 20 20.5 36.5t47 30t54 19.5t41.5 6q27 0 52.5 -6t50.5 -18 q41 94 80 185t78 188q29 68 55 137t57 137q-102 23 -202.5 47.5t-202.5 50.5q-33 6 -64 15.5t-65 9.5q-49 0 -104.5 -16.5t-102.5 -47t-78 -80t-31 -114.5q0 -33 10.5 -66t29 -59.5t44 -43t56.5 -16.5q47 0 88 33t41 92q0 20 12 32.5t29 12.5q16 0 29.5 -12t13.5 -33 q0 -49 -18.5 -89t-48.5 -68.5t-68 -44t-78 -15.5q-49 0 -90.5 23.5t-71 61.5t-46 88.5t-16.5 103.5q0 86 38 152.5t96.5 110.5t129 66.5t136.5 22.5q94 0 184 -29.5t182 -52.5q53 -14 104.5 -26.5t104.5 -24.5q33 55 79 92t108 37q25 0 52 -6t52 -21.5t41 -39t16 -56.5 t-16 -55.5t-40 -37.5t-52.5 -22.5t-52.5 -7.5q-70 0 -142 15q-35 -72 -62.5 -147t-58.5 -148q-39 -94 -77.5 -187.5t-79.5 -183.5q31 -16 64.5 -27.5t68.5 -11.5q23 0 41 6t41 6q16 0 28.5 -13t12.5 -32q0 -16 -15.5 -29.5t-35 -19.5t-40 -10t-32.5 -4q-45 0 -87 17.5 t-83 35.5q-35 -76 -71 -152.5t-73 -152.5q-45 -88 -82.5 -179t-84.5 -180q135 -47 263 -88t273 -41q82 0 154.5 49.5t120.5 122.5q10 18 20 37t20 37q8 12 15.5 19.5t21.5 7.5q16 0 29.5 -14.5t13.5 -32.5q0 -6 -4 -21q-25 -63 -65.5 -117.5t-93 -95.5t-111.5 -63.5 t-121 -22.5q-154 0 -296 47t-288 97q-35 -51 -91 -97.5t-115 -46.5q-27 0 -61 7.5t-62.5 24.5t-49 44t-20.5 66zM43 109q0 -16 13.5 -27.5t31.5 -15t36.5 -4.5t29.5 -1q35 0 64 23.5t52 52.5q-55 16 -120 17q-10 0 -28 -1t-35 -5.5t-30.5 -13.5t-13.5 -25zM1081 1688 q47 -6 93 -7q6 0 18 1t25.5 3.5t22.5 9.5t9 15q0 12 -9 18.5t-22.5 8.5t-25.5 3t-18 1q-29 0 -51.5 -15.5t-41.5 -37.5z" />
<glyph unicode="[" horiz-adv-x="638" d="M295 -147v1646q0 16 12 28.5t29 12.5h289q16 0 29.5 -12t13.5 -29q0 -16 -13.5 -28.5t-29.5 -12.5h-246v-1564h246q16 0 29.5 -12.5t13.5 -28.5t-13.5 -28.5t-29.5 -12.5h-289q-16 0 -28.5 12t-12.5 29z" />
<glyph unicode="\" d="M266 1542q0 18 12.5 30.5t30.5 12.5q33 0 39 -31l367 -1529q0 -2 1 -4.5t1 -4.5q0 -16 -13.5 -29.5t-29.5 -13.5q-33 0 -39 31l-367 1530q0 2 -1 4t-1 4z" />
<glyph unicode="]" horiz-adv-x="638" d="M-27 -147q0 16 12.5 28.5t28.5 12.5h248v1564h-248q-16 0 -28.5 12.5t-12.5 28.5t12.5 28.5t28.5 12.5h289q16 0 29.5 -12t13.5 -29v-1646q0 -16 -13.5 -28.5t-29.5 -12.5h-289q-16 0 -28.5 12t-12.5 29z" />
<glyph unicode="^" horiz-adv-x="796" d="M305 961q0 18 24.5 40.5t37.5 32.5q25 23 46 45.5t42 46.5q12 16 33.5 40t43.5 24q12 0 27 -10q27 -23 46.5 -49.5t42 -51t49 -47t48.5 -49.5q13 -12 13 -22q0 -16 -13.5 -26.5t-29.5 -10.5q-14 0 -43 26.5t-58.5 58t-52 59.5t-29.5 30q-8 -12 -33.5 -41t-56 -58.5 t-58.5 -52t-38 -22.5q-16 0 -28.5 10t-12.5 27z" />
<glyph unicode="_" horiz-adv-x="1212" d="M23 -76q0 16 11 30.5t29 14.5h1055q18 0 30.5 -14.5t12.5 -30.5t-13 -28.5t-30 -12.5h-1055q-16 0 -28 12.5t-12 28.5z" />
<glyph unicode="`" horiz-adv-x="796" d="M313 1147q0 16 12.5 26.5t28.5 10.5q14 0 33 -15q41 -39 77 -73.5t83 -65.5q16 -10 33.5 -20.5t34 -23t16.5 -30.5q0 -16 -13.5 -27t-29.5 -11t-61.5 29.5t-92.5 68.5t-84 76.5t-37 54.5z" />
<glyph unicode="a" horiz-adv-x="974" d="M-41 315q0 70 25.5 132.5t71.5 109.5t107.5 74.5t131.5 27.5q74 0 141.5 -31.5t114.5 -86.5q0 14 -2 33.5t1 37t12 29.5t30 12q16 0 29.5 -11t13.5 -28v-415v-45q0 -25 6 -47.5t20.5 -38t40.5 -15.5q31 0 65 30t63.5 70t53 83t36.5 67q8 16 19 34.5t34 18.5 q16 0 30.5 -11.5t14.5 -27.5q0 -4 -3 -11t-5 -11q-14 -27 -27.5 -54.5t-36.5 -62.5q-25 -37 -53.5 -73.5t-60 -66.5t-64.5 -47.5t-66 -17.5q-61 0 -97 34t-48 93q-47 -59 -115.5 -93t-146.5 -34q-70 0 -131.5 28t-107.5 74t-71.5 108.5t-25.5 131.5zM43 315q0 -51 19.5 -99 t53.5 -84t80 -57.5t99 -21.5t100 21.5t82 57.5t54.5 83t19.5 100t-19.5 100.5t-54.5 84.5t-82 58.5t-100 21.5t-99 -21.5t-80 -58.5t-53.5 -84t-19.5 -101z" />
<glyph unicode="b" horiz-adv-x="708" d="M-63 1102q0 41 5 113.5t17 155.5t30.5 168t46 153.5t65.5 111.5t87 43q61 0 106.5 -49t72 -121.5t40 -152.5t13.5 -142q0 -123 -37 -264t-93.5 -279.5t-120 -270.5t-116.5 -238q4 -49 16.5 -100.5t34 -88.5t55.5 -61.5t85 -24.5q72 0 119 48.5t73 109.5 q-59 37 -85.5 103.5t-26.5 132.5q0 31 7 62.5t22.5 58t40 43t61.5 16.5q33 0 54 -16.5t34.5 -42t19.5 -55.5t6 -56q0 -96 -24 -193q47 2 76.5 19.5t42.5 40.5q10 20 18 30.5t27 10.5q16 0 28.5 -11.5t12.5 -27.5q0 -6 -2.5 -12.5t-4.5 -10.5q-27 -69 -91 -99 q-51 -24 -106 -24q-15 0 -30 2q-37 -88 -103.5 -149.5t-168.5 -61.5q-66 0 -115 27t-82 71t-50 102t-24 128q-14 199 -25 398.5t-11 402.5zM20 1102q0 -152 5.5 -300.5t15.5 -299.5q43 88 95 198.5t96 227t75 234.5t31 220q0 39 -7 101.5t-25.5 122t-47.5 102.5t-70 43 q-23 0 -40 -23.5t-31.5 -55.5t-23.5 -64.5t-15 -51.5q-57 -225 -58 -454zM408 449q0 -41 13 -81t44 -69q20 76 20 160v22t-3 28.5t-9 26t-18 11.5q-16 0 -25.5 -11.5t-14.5 -26.5t-6 -31.5t-1 -28.5z" />
<glyph unicode="c" horiz-adv-x="673" d="M-41 315q0 70 25.5 132.5t71.5 109.5t107.5 74.5t131.5 27.5q14 0 48 -6t67.5 -18t59.5 -27.5t26 -34.5q0 -16 -13.5 -27t-29.5 -11q-18 0 -58.5 22.5t-99.5 22.5q-53 0 -99 -21.5t-80 -57.5t-53.5 -84t-19.5 -102q0 -53 19.5 -100t53.5 -83t80 -57.5t99 -21.5 q104 0 173 54.5t120 140.5q12 23 23.5 43t25.5 43q6 10 13 17t22 7q16 0 30.5 -12.5t14.5 -28.5q0 -4 -4 -12q-27 -66 -67 -126t-93 -106t-117.5 -73t-140.5 -27q-70 0 -131.5 28t-107.5 74t-71.5 108.5t-25.5 131.5z" />
<glyph unicode="d" horiz-adv-x="978" d="M-41 324q0 70 25.5 132t70.5 108t106.5 74t133.5 28q74 0 141.5 -31t114.5 -86l2 637q0 16 12.5 28.5t28.5 12.5t29.5 -12.5t13.5 -28.5l-4 -963q0 -18 1 -45.5t8 -55.5t21.5 -47.5t38.5 -19.5q33 0 52.5 16.5t42.5 41.5q41 47 76.5 105t52.5 91q10 16 20 36t33 20 q16 0 28.5 -11.5t12.5 -27.5q0 -12 -2 -19q-12 -25 -30.5 -57.5t-42 -68.5t-50.5 -69.5t-55 -62.5q-35 -35 -65 -55.5t-73 -20.5q-61 0 -95 39t-46 94q-47 -61 -117.5 -97t-148.5 -36q-72 0 -133.5 29t-106.5 77t-70.5 111.5t-25.5 133.5zM43 324q0 -53 18.5 -101.5 t52 -85.5t80 -59.5t101.5 -22.5t101 22.5t81 59.5t54.5 85.5t19.5 101.5t-19.5 100t-54.5 83t-81 56.5t-101 20.5t-101.5 -21.5t-80 -56.5t-52 -82t-18.5 -100z" />
<glyph unicode="e" horiz-adv-x="737" d="M-41 315q0 74 25.5 136.5t71.5 108.5t108.5 72.5t136.5 26.5q41 0 88 -13t88 -38.5t67.5 -62.5t26.5 -84q0 -57 -25.5 -100.5t-66.5 -72t-92 -44t-102 -15.5q-68 0 -124.5 14.5t-117.5 43.5q6 -47 27.5 -90t55.5 -75t77 -50.5t92 -18.5q111 0 204 47t152 144 q6 10 15.5 28.5t20.5 37t23.5 32.5t26.5 14q16 0 30.5 -11.5t14.5 -27.5q0 -4 -4 -12q-66 -154 -189.5 -243t-293.5 -89q-70 0 -131.5 28t-106.5 75t-71.5 108.5t-26.5 130.5zM47 375q61 -33 114.5 -48.5t123.5 -15.5q33 0 68.5 9.5t65.5 28t49 46t19 66.5q0 29 -20.5 50 t-49 36.5t-61 24t-55.5 8.5q-94 0 -163.5 -56.5t-90.5 -148.5z" />
<glyph unicode="f" horiz-adv-x="481" d="M-61 -336q0 223 14 445q0 45 3 89t3 91v762q0 41 2 115.5t9 162.5t22.5 179t39 166t58.5 122t86 47q66 0 115 -51t79.5 -125t45 -155.5t14.5 -145.5q0 -139 -38 -281.5t-96 -279.5t-126 -268t-125 -246l-2 -10q18 -20 40.5 -44t47.5 -43.5t53.5 -33t59.5 -13.5 q41 0 69.5 18.5t52 46.5t41 60.5t35.5 61.5q14 25 39 24q16 0 29.5 -13.5t13.5 -29.5q0 -6 -4 -18q-18 -41 -44.5 -83t-61.5 -76t-78 -54.5t-92 -20.5h-19q-6 0 -16 3q57 -100 95 -198.5t70 -202t50 -210t18 -207.5q0 -74 -11 -156.5t-36.5 -153.5t-70.5 -117t-115 -46 q-63 0 -108.5 49.5t-75 128t-47 177t-26.5 198t-11 188.5t-2 148zM25 -373q0 -43 1 -111.5t7 -151.5t16 -168t30.5 -152.5t52.5 -111.5t77 -44q47 0 76.5 40t44 95t19.5 117.5t5 107.5q0 115 -28.5 244t-72.5 256t-99.5 239.5t-118.5 178.5q-2 -119 -6 -258t-4 -281zM45 496 q45 94 97.5 200.5t96.5 219t74.5 227t30.5 223.5q0 41 -10 106.5t-29.5 125t-51.5 103.5t-77 44q-33 0 -55.5 -44t-36.5 -110.5t-22.5 -149.5t-11.5 -160t-4 -139.5t-1 -90.5v-555z" />
<glyph unicode="g" horiz-adv-x="950" d="M-41 307q0 72 25.5 135.5t70.5 111.5t106.5 76.5t133.5 28.5q74 0 141.5 -31.5t114.5 -88.5q0 14 -1 33.5t1 37t11 29.5t30 12q16 0 29.5 -11t13.5 -30v-551q66 43 128 93.5t109 115.5q10 16 20.5 30.5t20.5 31.5q14 20 35 20q16 0 30.5 -12.5t14.5 -28.5q0 -10 -6 -20 q-31 -53 -70.5 -99.5t-87 -87.5t-96.5 -77.5t-98 -92.5v-604q0 -74 -8.5 -172t-31 -186t-65.5 -148.5t-110 -60.5q-70 0 -113 48t-66.5 122t-31.5 161t-8 167q0 111 33.5 216t85 200.5t114 177t117.5 145.5v78q-47 -57 -114.5 -88t-141.5 -31q-72 0 -133.5 28.5t-106.5 76 t-70.5 112t-25.5 133.5zM43 307q0 -53 18.5 -101t52 -85t80 -59.5t101.5 -22.5t101 22.5t81 59.5t54.5 85t19.5 101t-19.5 102.5t-54.5 86t-81 59.5t-101 23t-101.5 -23t-80 -59.5t-52 -86t-18.5 -102.5zM285 -741q0 -49 3 -117t16 -125t40 -97t76 -40q47 0 73.5 51t39 125 t15.5 149.5t3 122.5v508q-43 -51 -89 -114.5t-86 -138.5t-65.5 -157.5t-25.5 -166.5z" />
<glyph unicode="h" horiz-adv-x="794" d="M-55 844q0 178 8 354t51 348q10 37 26.5 88.5t42 96.5t58.5 76.5t76 31.5q72 0 123 -50t82.5 -123t47 -154.5t15.5 -149.5q0 -86 -16.5 -171t-44 -167t-63.5 -161t-103 -197h10h10q41 0 75 -16q38 -18 64.5 -48.5t40 -71.5t13.5 -84v-217v-45t5 -57.5t17.5 -49 t36.5 -20.5q43 0 78 34t64.5 80t53 94t42.5 79q12 23 35 23q16 0 30.5 -12.5t14.5 -28.5q0 -2 -4 -11q-16 -43 -48 -101t-73 -111.5t-90.5 -90.5t-102.5 -37q-49 0 -77.5 26t-43 63.5t-18.5 83t-4 81.5v217q0 49 -30 93.5t-89 44.5q-33 0 -65.5 -37t-60.5 -86t-52.5 -98.5 t-42.5 -73.5q4 -68 9 -135.5t5 -137.5q0 -18 -12 -30.5t-31 -12.5q-31 0 -37 25t-6 47q0 49 -3 99.5t-7 99.5q-8 133 -9 284.5t-1 315.5zM35 836q0 -195 6 -390q33 88 102.5 205t120.5 232.5t87 234.5t36 244q0 45 -6 93t-20.5 96t-37 89t-55.5 68q-14 12 -29.5 20.5 t-31.5 8.5q-23 0 -42.5 -27t-33.5 -62.5t-25.5 -73.5t-15.5 -58q-43 -164 -49 -335t-6 -345z" />
<glyph unicode="i" horiz-adv-x="518" d="M-41 315q0 18 16.5 50t24.5 51q16 37 26.5 75.5t20.5 77.5q2 10 6 25.5t10.5 30t16.5 23.5t24 9q23 0 32 -16t9 -29v-385v-49q0 -29 5.5 -56.5t19.5 -48t43 -20.5q57 0 104.5 45t81.5 101q16 27 31.5 50t28.5 46q10 16 21.5 38.5t35.5 22.5q14 0 29.5 -9.5t15.5 -29.5 q0 -10 -8 -25.5t-18.5 -32.5t-20.5 -32.5t-14 -23.5q-6 -10 -12.5 -22.5t-14.5 -22.5q-20 -33 -48 -67t-60.5 -59.5t-70.5 -42t-81 -16.5q-51 0 -81 27t-45 64.5t-20.5 81.5t-5.5 81v103v32q-2 -4 -4 -16t-4 -16q-12 -23 -26.5 -39.5t-26.5 -16.5q-16 0 -28.5 12.5 t-12.5 28.5zM49 870q0 27 16.5 45.5t43.5 18.5t46 -18.5t19 -45.5t-19.5 -45t-45.5 -18q-27 0 -43.5 18.5t-16.5 44.5z" />
<glyph unicode="j" horiz-adv-x="485" d="M-305 -737q0 119 36 218t90 185t118.5 158t121.5 135v365l-2 26q-2 -4 -2 -12q0 -6 -2 -10q-8 -20 -20 -39t-35 -19q-16 0 -28.5 12.5t-12.5 28.5q0 12 2 19q20 47 39.5 94t36.5 98q8 27 12 53.5t14 51.5q10 33 41 32q18 0 29.5 -14t11.5 -31v-600q72 51 135.5 113.5 t116.5 132.5q14 18 26.5 37.5t27.5 36.5q8 10 15 14t19 4q16 0 29.5 -12.5t13.5 -28.5q0 -10 -8 -22q-68 -111 -170 -206t-205 -185v-541q0 -70 -10 -169t-34.5 -191.5t-65.5 -159t-103 -66.5q-61 0 -106 48t-73.5 122t-43 160t-14.5 162zM-219 -737q0 -47 8 -110.5 t26.5 -121t47 -98.5t69.5 -41q39 0 65 57.5t40 134t19 153.5t5 120v448q-43 -49 -93 -105t-91 -124t-68.5 -144.5t-27.5 -168.5zM49 870q0 27 16.5 45.5t43.5 18.5t46 -18.5t19 -45.5t-19.5 -45t-45.5 -18q-27 0 -43.5 18.5t-16.5 44.5z" />
<glyph unicode="k" horiz-adv-x="798" d="M-66 1059q0 43 6.5 118.5t16.5 165t29.5 178.5t49.5 161.5t68.5 119.5t90.5 47q68 0 115.5 -54t80.5 -131t49.5 -162t16.5 -146q0 -72 -19.5 -160t-51.5 -179t-68.5 -174t-90.5 -188q6 6 13 7h18q86 0 147.5 -48.5t61.5 -136.5q0 -72 -49 -127q25 -35 31 -67.5t6 -73.5 q0 -14 1 -40t6 -51.5t17.5 -44t32.5 -18.5q37 0 68.5 22.5t58.5 56.5t47.5 71t34.5 65q10 18 19.5 32.5t19.5 37.5q14 25 37 25q16 0 30.5 -12.5t14.5 -28.5q0 -10 -6 -21q-23 -45 -54.5 -102.5t-71.5 -108.5t-89.5 -85t-108.5 -34q-45 0 -72.5 28t-42 69t-19.5 86t-5 77 q0 39 -17 64q-55 -31 -118 -31q-41 0 -77 19.5t-36 66.5t39 66.5t80 19.5q31 0 59.5 -9t54.5 -26q25 31 25 74q0 53 -37 78t-88 25q-37 0 -69.5 -36t-60.5 -85t-51.5 -98.5t-39.5 -75.5q6 -135 6 -271q0 -18 -13.5 -29.5t-29.5 -11.5t-28.5 11.5t-12.5 29.5q0 236 -12.5 496 t-12.5 549zM25 1059q0 -150 4 -296.5t10 -295.5q31 63 93.5 185t113.5 246t86 244t35 214q0 39 -10.5 104.5t-31 130t-53 111.5t-77.5 47q-23 0 -42.5 -25.5t-33 -59.5t-24.5 -71t-15 -57q-31 -115 -43 -234.5t-12 -242.5zM209 352q0 -8 14.5 -9t18.5 -1q12 0 28.5 3t28.5 7 q-25 14 -53 15q-4 0 -20.5 -4.5t-16.5 -10.5z" />
<glyph unicode="l" horiz-adv-x="542" d="M-66 1124q0 39 5.5 110t16.5 149.5t30.5 161.5t48 149.5t66.5 108.5t87 42q74 0 124 -53t81 -128t44.5 -157t13.5 -141q0 -94 -29 -211t-73 -232.5t-93 -224t-90 -190.5q-27 -53 -53.5 -103.5t-69.5 -93.5q4 -43 17.5 -89t37 -83t58 -60.5t82.5 -23.5q35 0 64.5 16.5 t54 42t46 57.5t39.5 62q29 53 52.5 93.5t46.5 40.5q16 0 29.5 -11.5t13.5 -29.5q0 -12 -4 -21q-16 -33 -39 -70.5t-52 -78.5q-25 -35 -51 -68t-58 -58.5t-66.5 -41t-75.5 -15.5q-74 0 -126.5 34t-85 86t-49 114.5t-18.5 120.5q2 27 2 61q0 43 -3 97q-5 96 -10 204.5 t-9.5 221t-4.5 212.5zM23 1130q0 -82 3 -174t7 -181t8 -169t6 -133q47 88 103.5 206t103.5 241.5t77.5 241.5t30.5 204q0 80 -14 147q-6 35 -21.5 76t-36 76t-46 58.5t-56.5 23.5q-23 0 -41 -23.5t-32.5 -57.5t-23.5 -67.5t-15 -54.5q-29 -102 -41 -205.5t-12 -208.5z" />
<glyph unicode="m" horiz-adv-x="1400" d="M-41 315q0 8 8 26.5t19 43.5q16 37 30.5 78t22.5 61q18 47 59 89t99 42q35 0 64.5 -15t45.5 -48q35 31 78 47t90 16q53 0 100.5 -18.5t75.5 -65.5q31 39 74 61.5t92 22.5q43 0 84 -13t72 -37.5t49 -60.5t18 -83v-234q0 -27 2 -57.5t11.5 -57t30 -43t57.5 -16.5 q23 0 55.5 33t65 79t61.5 94t43 77q12 20 35 20q16 0 30.5 -11.5t14.5 -27.5q0 -4 -4 -12q-10 -29 -40 -77t-69 -99q-47 -61 -97 -108.5t-95 -47.5q-55 0 -92 21.5t-57.5 57.5t-29 82t-8.5 93v234q0 59 -42 86.5t-95 27.5q-57 0 -94 -46t-37 -101v-414q0 -16 -13.5 -28.5 t-29.5 -12.5t-28.5 12.5t-12.5 28.5v414q0 68 -26.5 107.5t-100.5 39.5q-23 0 -48.5 -8t-47 -22.5t-35.5 -36t-14 -47.5v-447q0 -16 -13.5 -28.5t-29.5 -12.5t-28.5 12.5t-12.5 28.5v453q0 12 -1 31.5t-5 36t-14.5 28.5t-28.5 12q-37 0 -61.5 -47t-45 -103t-41 -103.5 t-49.5 -47.5q-16 0 -28.5 12.5t-12.5 28.5z" />
<glyph unicode="n" horiz-adv-x="1036" d="M-51 307q0 6 5 21.5t13 33t14.5 34t10.5 22.5q10 25 17 51.5t18 50.5q18 51 60 95t101 44q37 0 64 -20.5t43 -52.5q29 35 71 54t87 19q43 0 82.5 -13t70.5 -38.5t48.5 -62.5t17.5 -84v-234q0 -27 2 -57.5t13 -57t31.5 -43t57.5 -16.5q23 0 53.5 32t60.5 75t55.5 85 t35.5 62q10 16 21.5 32.5t33.5 16.5q16 0 28.5 -11.5t12.5 -27.5q0 -4 -6 -19t-10 -22q-16 -31 -49 -82t-72 -100t-82 -85t-82 -36q-55 0 -92 21.5t-58.5 57.5t-29.5 82t-8 93v234q0 59 -41 89t-94 30q-29 0 -53.5 -13.5t-42 -35t-28 -49t-10.5 -54.5v-414q0 -16 -12 -28.5 t-28 -12.5t-29.5 12.5t-13.5 28.5v453q0 12 -1.5 30.5t-5.5 37t-14 32t-27 13.5q-29 0 -48 -21.5t-31.5 -51.5t-20.5 -60.5t-16 -51.5q-6 -12 -13.5 -33.5t-16.5 -43t-21.5 -37t-28.5 -15.5t-29.5 12.5t-13.5 28.5z" />
<glyph unicode="o" horiz-adv-x="819" d="M-41 315q0 70 25.5 132.5t71.5 109.5t107.5 74.5t131.5 27.5q72 0 133 -27.5t107.5 -74.5t73 -109.5t26.5 -132.5q0 -14 -1 -27.5t-3 -25.5q10 -2 33 -2q41 0 63.5 15.5t36.5 33t25.5 32.5t29.5 15q16 0 29.5 -11.5t13.5 -27.5q0 -6 -4 -18q-27 -55 -80 -88t-114 -33 q-14 0 -26.5 2t-27.5 6q-41 -96 -126 -154.5t-189 -58.5q-70 0 -131.5 28t-107.5 74t-71.5 108.5t-25.5 131.5zM43 315q0 -51 19.5 -99t53.5 -84t80 -57.5t99 -21.5q80 0 144 46t93 120q-41 29 -69.5 74t-28.5 98q0 29 10.5 58.5t30.5 52.5q-74 78 -180 78q-53 0 -99 -21.5 t-80 -58.5t-53.5 -84t-19.5 -101zM518 391q0 -20 10.5 -39t20.5 -35q0 23 -5 53.5t-16 53.5q-2 -8 -6 -15.5t-4 -17.5z" />
<glyph unicode="p" horiz-adv-x="860" d="M-41 307q0 10 2 17q16 47 37.5 94t36.5 96q8 29 13 56.5t15 54.5q6 14 15.5 23t25.5 9q23 0 31 -16t10 -35q59 49 134 49q45 0 84.5 -13t70.5 -38.5t48.5 -62.5t17.5 -84v-240q0 -27 2 -58.5t11 -58t29.5 -44t57.5 -17.5q29 0 56.5 29.5t54.5 68.5q31 43 58.5 86t39.5 70 q8 16 18.5 35.5t32.5 19.5q16 0 30.5 -11.5t14.5 -27.5q0 -4 -4 -16t-6 -17q-35 -72 -107 -170q-16 -25 -34.5 -45t-36.5 -38q-29 -29 -57.5 -47.5t-59.5 -18.5q-57 0 -93 23.5t-56.5 60.5t-27.5 83t-7 93v240q0 59 -42 87.5t-95 28.5q-27 0 -51.5 -14t-43 -35.5t-29 -48 t-10.5 -53.5l2 -1608q0 -16 -13 -28.5t-30 -12.5q-16 0 -28.5 12.5t-12.5 28.5l-2 1522q-6 -16 -23.5 -43t-37.5 -27q-16 0 -28.5 12.5t-12.5 28.5z" />
<glyph unicode="q" horiz-adv-x="976" d="M-41 307q0 70 25.5 133.5t70.5 112.5t106.5 77.5t133.5 28.5q74 0 141.5 -31.5t114.5 -88.5q0 12 -2 32.5t1 39t12 31.5t30 13q18 0 30.5 -13t12.5 -30v-426v-45q0 -25 6 -48t20.5 -38.5t40.5 -15.5q31 0 65 29.5t62.5 71.5t53 85t37.5 68q10 16 21 35.5t34 19.5 q16 0 30.5 -10.5t14.5 -28.5q0 -6 -4 -18q-14 -39 -48 -96.5t-77 -110.5t-92 -90t-97 -37q-35 0 -67 16l-6 -1165q0 -16 -13.5 -28.5t-29.5 -12.5t-28.5 12.5t-12.5 28.5l6 1270q-47 -57 -114.5 -89t-141.5 -32q-72 0 -133.5 28.5t-106.5 77t-70.5 112t-25.5 132.5zM43 307 q0 -53 18.5 -101t52 -85t80 -59.5t101.5 -22.5t101 22.5t81 59.5t54.5 85t19.5 101t-19.5 102.5t-54.5 86t-81 59.5t-101 23t-101.5 -23t-80 -59.5t-52 -86t-18.5 -102.5z" />
<glyph unicode="r" horiz-adv-x="819" d="M-57 295q0 4 7 20.5t11 20.5q25 53 47.5 108.5t38.5 110.5q-33 18 -51.5 52t-18.5 71q0 47 19.5 88t75.5 41q41 0 64.5 -28.5t23.5 -65.5q0 -23 -3 -45.5t-7 -44.5q29 4 58.5 10t59.5 6q33 0 70 -7t68.5 -23.5t53 -43t21.5 -67.5t-11 -81t-23.5 -79t-23.5 -79t-11 -81 q0 -47 34.5 -85t81.5 -38q25 0 50.5 14.5t49 36t45 49t36.5 54.5q18 33 37.5 62.5t35.5 64.5q10 23 35 22q16 0 30.5 -11.5t14.5 -27.5q0 -4 -4 -16q-10 -27 -28.5 -57.5t-38.5 -65.5q-25 -39 -54.5 -75.5t-63.5 -65.5t-71 -47.5t-74 -18.5q-41 0 -77.5 16.5t-64.5 45 t-43 65.5t-15 78t11 81t23.5 79t23.5 79t11 81q0 20 -14 32.5t-34.5 18.5t-43 7t-37.5 1q-35 0 -69.5 -8t-69.5 -12q-6 -27 -19.5 -62t-27.5 -71.5t-31 -70.5t-29 -56.5t-36 -22.5q-16 0 -29.5 12.5t-13.5 28.5zM61 676q0 -12 9 -29q6 37 6 74q0 4 -4 4q-8 0 -9.5 -18.5 t-1.5 -22.5v-8z" />
<glyph unicode="s" horiz-adv-x="808" d="M-41 317q0 6 15.5 41t34 77t35.5 80t24 50q-33 23 -49.5 55.5t-16.5 71.5q0 49 28.5 83t80.5 34q41 0 70.5 -28.5t29.5 -69.5q0 -18 -13.5 -50t-21.5 -49q59 -12 129 -33.5t130.5 -58.5t101.5 -90t41 -127q0 -63 -21.5 -125.5t-62.5 -109.5q78 23 136 72.5t99 119.5 q10 18 20.5 38.5t22.5 39.5q8 10 14.5 15t20.5 5q16 0 30.5 -11.5t14.5 -27.5q0 -4 -4 -16q-66 -154 -184.5 -242t-288.5 -88h-90q-33 0 -81 15.5t-93 41t-76 61.5t-31 75q0 18 12.5 29.5t28.5 11.5q31 0 36 -20.5t15 -41.5q8 -14 32 -30.5t53.5 -29.5t58 -21.5t45.5 -8.5 q49 0 88 21.5t65.5 57.5t41 80t14.5 89q0 57 -38 97t-93.5 67t-116 43t-103.5 27q-23 -49 -42 -97.5t-42 -97.5q-8 -18 -21 -40.5t-38 -22.5q-16 0 -28.5 11t-12.5 27zM86 692q0 -12 3 -24.5t11 -22.5q4 10 15.5 34t11.5 32q0 16 -16 16t-20.5 -11t-4.5 -24z" />
<glyph unicode="t" horiz-adv-x="505" d="M-41 276v922q0 16 13.5 28.5t29.5 12.5t28.5 -12.5t12.5 -28.5v-285h367q16 0 28.5 -12t12.5 -29q0 -16 -12.5 -28.5t-28.5 -12.5h-367v-555q0 -43 12.5 -82.5t36 -70.5t58 -49.5t81.5 -18.5q33 0 66 30t62.5 71t53 83t36.5 68q10 18 21 38t36 20q16 0 28.5 -11.5 t12.5 -27.5q0 -6 -4 -19q-14 -41 -47 -98t-76 -109.5t-91 -89.5t-98 -37q-63 0 -114 25t-86 66.5t-53.5 97t-18.5 114.5z" />
<glyph unicode="u" horiz-adv-x="968" d="M-41 315q0 10 10.5 37t23.5 58.5t25.5 62.5t16.5 45q4 12 7 30.5t8 37t11.5 35t14.5 24.5q12 12 28 12q18 0 29.5 -14t11.5 -31v-372q0 -45 18.5 -80t49.5 -58.5t70 -36t79 -12.5q47 0 82 24.5t57.5 62.5t34 83t11.5 84v305q0 16 12 28.5t29 12.5q16 0 29.5 -12t13.5 -29 v-413v-45q0 -25 6 -47.5t20.5 -38t40.5 -15.5q29 0 58.5 24.5t57.5 59.5t49.5 71t33.5 58q10 16 18.5 34.5t18.5 35.5q14 20 35 20q16 0 30.5 -11.5t14.5 -27.5q0 -4 -2 -9t-4 -9q-18 -39 -51 -95.5t-73 -107.5t-88 -87t-98 -36q-98 0 -133 95q-2 4 -3 16t-3 16 q-4 -4 -6 -18t-6 -19q-35 -41 -82 -65.5t-103 -24.5q-57 0 -111 18.5t-96 52.5t-68 84t-26 112v82l-2 43q-2 -4 -2 -17q0 -12 -2 -16q-10 -16 -24.5 -37t-30.5 -21t-28.5 12.5t-12.5 28.5z" />
<glyph unicode="v" horiz-adv-x="872" d="M-41 315q0 10 10.5 39t22.5 60.5t25.5 61.5t19.5 42q10 18 24.5 43t32 45.5t39 34.5t45.5 14q29 0 46.5 -16t26.5 -41t12 -51.5t3 -48.5q0 -41 -2 -80t-2 -80q0 -39 3 -88t17.5 -93t44 -74t83.5 -30q66 0 127 40t77 108q-35 12 -59.5 42.5t-39.5 65.5t-22.5 71t-7.5 60 q0 31 4.5 68t17.5 68.5t37.5 52t65.5 20.5q37 0 60.5 -26.5t38 -64.5t20.5 -78t6 -68q0 -37 -4 -74t-10 -72q47 2 76.5 19.5t42.5 40.5q10 20 18 30.5t27 10.5q16 0 29.5 -11.5t13.5 -27.5q0 -6 -2 -12.5t-4 -10.5q-12 -33 -38 -58.5t-56.5 -41t-65.5 -20.5q-19 -3 -38 -3 q-15 0 -30 2l-2 -14q-39 -94 -108.5 -145.5t-173.5 -51.5q-78 0 -124 36t-69.5 91.5t-30 122t-6.5 125.5q0 47 1 94t1 95v20t-10 16q-14 0 -28.5 -22.5t-27 -55t-25.5 -71.5t-26 -72t-30 -55.5t-35 -22.5q-16 0 -28.5 12.5t-12.5 28.5zM567 477q0 -27 1 -56.5t8.5 -58 t21.5 -53t39 -41.5q8 35 11 72t3 72q0 10 -1 35.5t-5 53t-12 48t-23 20.5q-14 0 -23 -10t-13.5 -24.5t-5.5 -31t-1 -26.5z" />
<glyph unicode="w" horiz-adv-x="1312" d="M-41 315q0 10 9 39t22.5 62t26 61.5t18.5 40.5q10 18 23.5 43t30.5 45.5t39 34.5t46 14q29 0 46.5 -16t26.5 -41t12 -51.5t3 -48.5v-258q0 -31 9.5 -64t26.5 -60.5t44 -45t61 -17.5q82 0 127 41t65.5 102.5t25 133t4.5 131.5v151q0 16 12 28.5t29 12.5q16 0 29.5 -12 t13.5 -29v-200v-172q0 -31 9 -64t26.5 -60.5t44 -45t61.5 -17.5q66 0 126 40t77 108q-35 12 -59.5 42.5t-40 65.5t-22.5 71t-7 60q0 31 4 68t18.5 68.5t39 52t65.5 20.5q37 0 60.5 -26.5t36.5 -64.5t19.5 -78t6.5 -68q0 -74 -13 -146q47 2 77 19.5t42 40.5q10 20 18.5 30.5 t26.5 10.5q16 0 28.5 -11.5t12.5 -27.5q0 -6 -2 -12.5t-4 -10.5q-12 -33 -37 -58.5t-55.5 -41t-65.5 -20.5q-19 -3 -38 -3q-15 0 -29 2l-2 -14q-39 -94 -109 -145.5t-174 -51.5q-70 0 -120 40t-79 102q-39 -72 -102.5 -107t-145.5 -35q-51 0 -94 23.5t-71.5 61.5t-45 85 t-16.5 97v297q0 4 -1 20t-9 16q-14 0 -27.5 -22.5t-26 -55t-23.5 -71.5t-24 -72t-29 -55.5t-36 -22.5q-16 0 -28.5 12.5t-12.5 28.5zM1008 477q0 -27 1 -56.5t8 -58t21.5 -53t38.5 -41.5q8 35 10.5 72t2.5 72q0 10 -1.5 35.5t-5.5 53t-11 48t-21 20.5t-23.5 -10t-13.5 -24.5 t-5 -31t-1 -26.5z" />
<glyph unicode="x" horiz-adv-x="1263" d="M-41 315q0 12 11.5 38t26.5 53.5t30.5 53t23.5 38.5q25 43 51.5 72.5t57 50t68.5 29.5t89 9q94 0 173 -49t124 -131q45 82 123 131t172 49q61 0 129 -24.5t109 -71.5q12 -16 12 -28q0 -16 -13 -27.5t-30 -11.5q-6 0 -26.5 13t-48 28.5t-61.5 29t-71 13.5q-53 0 -99 -21.5 t-80 -58.5t-53.5 -84t-19.5 -101q0 -51 19.5 -99t53.5 -84t80 -57.5t99 -21.5q63 0 109.5 22.5t79 56.5t56.5 73t42 72.5t33.5 56t34.5 22.5q16 0 29.5 -11.5t13.5 -27.5q0 -6 -4 -18q-27 -63 -64 -122.5t-85 -104.5t-108.5 -72t-136.5 -27q-94 0 -172 48.5t-123 130.5 q-45 -82 -123.5 -130.5t-173.5 -48.5q-37 0 -72.5 12.5t-68.5 34t-60.5 49t-45.5 56.5q-8 12 -9 25q0 16 12.5 26t28.5 10t36 -20.5t45.5 -46t58 -46t75.5 -20.5q53 0 100.5 21.5t82.5 57.5t54 83t19 100t-19 100.5t-54 84.5t-82 58.5t-101 21.5q-74 0 -113.5 -28t-65 -69 t-46 -91t-55.5 -95q-8 -10 -16.5 -16.5t-20.5 -6.5q-16 0 -28.5 12.5t-12.5 28.5z" />
<glyph unicode="y" horiz-adv-x="954" d="M-41 307q0 12 2 19q20 47 39.5 94t34.5 96q8 27 13 53.5t15 53.5q4 14 14.5 24t26.5 10q18 0 29.5 -14t11.5 -31v-383q0 -45 17.5 -80.5t47.5 -60.5t68.5 -37t81.5 -12q49 0 84 25.5t57.5 63.5t33 84t10.5 87v311q0 18 12 29.5t29 11.5q16 0 29.5 -11t13.5 -30v-618 q68 57 130 119.5t111 136.5q14 20 24.5 40.5t25.5 39.5q14 20 34 20q16 0 30.5 -12.5t14.5 -28.5q0 -8 -6 -18q-66 -123 -161 -219.5t-203 -175.5v-508q0 -72 -10.5 -175.5t-35 -200.5t-66.5 -167t-103 -70t-100.5 54.5t-61 136.5t-28.5 175t-7 167q0 104 33 197.5t82 175 t106.5 150.5t106.5 97v117q-74 -86 -185 -86q-59 0 -113 19.5t-95 54.5t-66 86t-25 112v107q-8 -20 -21 -45t-40 -25q-16 0 -28.5 12.5t-12.5 28.5zM301 -692q0 -45 2 -115t13.5 -136.5t34 -113.5t63.5 -47q37 0 62.5 59.5t40.5 138.5t21.5 157.5t6.5 121.5v422 q-29 -29 -53.5 -58.5t-51.5 -62.5q-55 -72 -97 -159.5t-42 -206.5z" />
<glyph unicode="z" horiz-adv-x="804" d="M-37 309q0 2 11.5 36t24.5 76t26.5 80t15.5 50q-33 20 -51.5 53t-18.5 72q0 47 22.5 90t78.5 43q41 0 63.5 -34t22.5 -70q0 -23 -4 -44.5t-9 -44.5q31 4 61 12.5t62 8.5q33 0 70 -8t67.5 -24.5t50 -44.5t19.5 -68q0 -25 -9 -59t-21.5 -69.5t-25.5 -69.5t-22 -61 q-10 -37 -24.5 -70.5t-32.5 -68.5q25 12 69 19.5t72 7.5q70 0 119 -53q39 47 74 97t61 103q6 14 12.5 28.5t14.5 29.5q8 10 15 18t24 8q16 0 29.5 -12.5t13.5 -28.5q0 -8 -4 -16q-31 -84 -82 -158t-111 -139q20 -68 41 -157t35 -181t20.5 -185t6.5 -171q0 -76 -13.5 -168 t-44 -172t-81 -135.5t-122.5 -55.5q-70 0 -120 53.5t-81.5 133t-46 171t-14.5 167.5q0 123 26 218t66.5 178t95 157.5t126.5 152.5q-10 12 -26.5 23.5t-33.5 11.5q-37 0 -69.5 -12.5t-61 -27.5t-51.5 -27.5t-37 -12.5q-16 0 -28.5 10.5t-12.5 26.5q0 2 1 4t1 4 q12 43 41 111.5t56.5 139.5t49 135.5t21.5 101.5q0 20 -13 32.5t-32.5 18.5t-41 8t-36.5 2q-37 0 -72.5 -9t-72.5 -12q-6 -23 -14.5 -56.5t-19.5 -68t-22.5 -65.5t-23.5 -49q-8 -10 -15.5 -17.5t-23.5 -7.5t-28.5 12.5t-12.5 28.5zM53 678q0 -10 4 -19.5t9 -17.5q6 31 6 61 v11q0 8 -4 12q-10 -4 -12.5 -15.5t-2.5 -19.5v-12zM317 -702q0 -49 10.5 -119t31 -133.5t53 -109.5t77.5 -46q47 0 80 47t52.5 112.5t30 136.5t10.5 118q0 147 -18.5 307t-68.5 293q-51 -70 -96 -133.5t-82 -135t-58.5 -152.5t-21.5 -185z" />
<glyph unicode="{" horiz-adv-x="491" d="M-14 557q0 16 10 24.5t25.5 13.5t31 8t25.5 9q37 18 57.5 66.5t29.5 106t10 114.5t1 94q0 78 -1 157t-1 157q0 47 4 112.5t22.5 126t55.5 102.5t102 42q16 0 29.5 -12.5t13.5 -28.5t-8 -25.5t-19.5 -13.5t-24.5 -7.5t-23 -7.5q-27 -12 -40.5 -49t-19.5 -82t-7 -89t-1 -68 q0 -78 2 -157t2 -157q0 -51 -2 -112.5t-14.5 -122t-37 -113.5t-67.5 -88q43 -35 66.5 -87t35 -112.5t13.5 -121t2 -109.5q0 -86 -2 -170t-2 -170q0 -25 1 -65.5t7 -82.5t20.5 -77t41.5 -47q10 -4 23 -6.5t25.5 -7.5t20.5 -13.5t8 -24.5t-13 -28.5t-30 -12.5q-66 0 -103.5 42 t-56 101.5t-23.5 126t-5 113.5q0 84 2 165t2 165q0 35 -2 89.5t-11 110.5t-28.5 102t-56.5 63q-10 4 -25.5 8t-30 10t-24.5 15.5t-10 23.5z" />
<glyph unicode="|" horiz-adv-x="356" d="M137 14v1456q0 16 12.5 28.5t28.5 12.5t29.5 -12t13.5 -29v-1456q0 -16 -13 -28.5t-30 -12.5q-16 0 -28.5 12.5t-12.5 28.5z" />
<glyph unicode="}" horiz-adv-x="491" d="M92 -537q0 16 8.5 24.5t19.5 13.5t24.5 7.5t23.5 6.5q25 12 39 45.5t21.5 75.5t8.5 82t1 65q0 86 -1 170t-1 170q0 51 2 112.5t13 121t34.5 112.5t66.5 88q-43 35 -67.5 88t-36.5 114.5t-14.5 124t-2.5 113.5q0 82 2.5 162t2.5 162q0 25 -1.5 65.5t-7.5 83.5t-20 78 t-39 47q-10 6 -23.5 8.5t-24.5 7.5t-19.5 13t-8.5 25q0 16 12.5 28.5t28.5 12.5q66 0 102.5 -42t55 -101.5t23.5 -124t5 -111.5q0 -80 -1 -160t-1 -160q0 -35 1 -92t10.5 -115.5t30 -106.5t57.5 -65q10 -4 26.5 -8t30.5 -9t24.5 -13.5t10.5 -24.5q0 -14 -10.5 -23.5 t-25.5 -15.5t-30.5 -10t-25.5 -8q-37 -16 -56.5 -64.5t-28.5 -106t-10.5 -114.5t-1.5 -92q0 -80 2.5 -161t2.5 -161q0 -47 -5.5 -112.5t-25 -125t-57 -100.5t-103.5 -41q-16 0 -28.5 12.5t-12.5 28.5z" />
<glyph unicode="~" horiz-adv-x="1179" d="M82 1073q0 10 2 14q23 49 66 83t98 34q51 0 92 -21.5t80 -46t78 -46t84 -21.5q35 0 61.5 17.5t42.5 46.5q12 20 37 20q16 0 30.5 -10.5t14.5 -28.5q0 -27 -21.5 -48.5t-50 -36.5t-60.5 -24.5t-54 -9.5q-55 0 -101.5 21.5t-86.5 46t-75.5 46t-70.5 21.5q-25 0 -41.5 -14 t-28.5 -32.5t-23.5 -33t-29.5 -14.5q-16 0 -29.5 10.5t-13.5 26.5z" />
<glyph unicode="&#xa8;" horiz-adv-x="737" d="M72 915q0 37 28.5 63t65.5 26t63.5 -26t26.5 -63t-26.5 -62.5t-63.5 -25.5t-65.5 26t-28.5 62zM303 915q0 37 27.5 63t64.5 26t63.5 -26t26.5 -63t-26.5 -62.5t-63.5 -25.5t-64.5 26t-27.5 62z" />
<glyph unicode="&#xab;" d="M176 371q0 16 8 26l299 357q12 14 33 14q16 0 29.5 -12.5t13.5 -28.5q0 -12 -10 -27l-277 -329l277 -326q10 -11 10 -25q0 -16 -13.5 -28t-29.5 -12q-20 0 -33 14l-299 352q-8 8 -8 25zM463 371q0 16 8 26l299 357q12 14 33 14q16 0 29.5 -12.5t13.5 -28.5q0 -12 -10 -27 l-277 -329l277 -326q10 -11 10 -25q0 -16 -13.5 -28t-29.5 -12q-20 0 -33 14l-299 352q-8 8 -8 25z" />
<glyph unicode="&#xad;" horiz-adv-x="1458" d="M252 352q0 18 12 30.5t29 12.5h870q16 0 29.5 -12.5t13.5 -30.5t-12 -29.5t-31 -11.5h-870q-16 0 -28.5 12.5t-12.5 28.5z" />
<glyph unicode="&#xb0;" horiz-adv-x="491" d="M102 1262q0 66 49.5 105.5t110.5 39.5t111.5 -39.5t50.5 -105.5t-50 -107t-112 -41q-61 0 -110.5 41t-49.5 107zM186 1262q0 -31 23.5 -51.5t52.5 -20.5t53.5 20.5t24.5 51.5t-24.5 50t-53.5 19t-52.5 -19.5t-23.5 -49.5z" />
<glyph unicode="&#xb2;" horiz-adv-x="272" d="M-41 12q0 16 12.5 27.5t28.5 11.5q29 0 58.5 23.5t56 57.5t49 69t35.5 57q6 10 12 24.5t15.5 28t20.5 23.5t23 10q16 0 30.5 -11.5t14.5 -27.5q0 -2 -4 -10q-16 -39 -50 -94.5t-76 -105.5t-90 -86t-95 -36q-16 0 -28.5 11.5t-12.5 27.5z" />
<glyph unicode="&#xb4;" horiz-adv-x="405" d="M51 1100q0 8 13.5 28.5t29 46t27.5 54t12 53.5q0 16 -7 31.5t-15.5 29t-15.5 24.5t-7 17q0 16 13.5 28.5t29.5 12.5q18 0 33.5 -17t27 -39.5t18.5 -47.5t7 -39q0 -16 -12 -53t-30.5 -74t-40 -65.5t-40.5 -28.5q-16 0 -29.5 11t-13.5 28z" />
<glyph unicode="&#xb8;" horiz-adv-x="763" d="M250 -315q0 16 13 27.5t30 11.5q16 0 24.5 -10.5t20.5 -21.5t35.5 -21.5t66.5 -10.5q10 0 25.5 2t30 7t25.5 14.5t11 21.5t-11 25.5t-27.5 23.5t-34 17.5t-29.5 7.5t-26.5 -7.5t-30.5 -7.5q-33 0 -33 31q0 10 2 17q18 86 18 178q0 16 13.5 27.5t29.5 11.5t29.5 -11.5 t13.5 -27.5q0 -33 -3 -66t-7 -65q29 -2 60.5 -14.5t58.5 -33t44 -48t17 -58.5t-17 -54.5t-44 -38.5t-57.5 -22.5t-57.5 -7.5t-54.5 4t-54 14.5t-47 28t-32.5 43.5q-2 4 -2 13z" />
<glyph unicode="&#xba;" horiz-adv-x="1024" />
<glyph unicode="&#xbb;" d="M180 20q0 16 8 25l277 326l-277 329q-8 10 -8 27q0 16 12.5 28.5t28.5 12.5q20 0 33 -14l299 -357q10 -14 10 -26q0 -14 -10 -25l-299 -352q-12 -14 -33 -14q-16 0 -28.5 12t-12.5 28zM467 20q0 16 8 25l277 326l-277 329q-8 10 -8 27q0 16 12.5 28.5t28.5 12.5 q20 0 33 -14l299 -357q10 -14 10 -26q0 -14 -10 -25l-299 -352q-12 -14 -33 -14q-16 0 -28.5 12t-12.5 28z" />
<glyph unicode="&#xc0;" horiz-adv-x="1501" d="M-41 111q0 49 38 83.5t87 34.5q41 0 41 -41q0 -23 -12.5 -30.5t-27.5 -12t-28.5 -10.5t-13.5 -24q0 -16 13.5 -27.5t31.5 -18t37.5 -8.5t32.5 -2q119 0 185.5 59.5t99 148.5t39.5 192.5t7 191.5v221h-20q-25 0 -47.5 -8t-39.5 -17t-30.5 -17.5t-21.5 -8.5 q-16 0 -29.5 13.5t-13.5 29.5t14 31q39 35 88 49t100 10q0 78 4.5 154t4.5 153q0 49 10 112t35.5 117t67.5 92t104 38q66 0 100.5 -40t51 -97.5t19.5 -120t3 -109.5q0 -96 -7.5 -190t-15.5 -189q14 -2 28.5 -3t29.5 -1q27 0 48 12.5t37.5 26t31 25.5t28.5 12 q16 0 28.5 -13.5t12.5 -29.5t-12 -29q-35 -35 -79 -60.5t-95 -25.5q-16 0 -33 1t-33 3q-4 -59 -6 -119.5t-2 -119.5q0 -61 4 -146.5t26.5 -162t70.5 -131t136 -54.5q57 0 105.5 23.5t84.5 62.5t55.5 90.5t19.5 106.5q0 39 -26 71.5t-66 32.5q-29 0 -39.5 -14t-14.5 -30.5 t-11 -31t-32 -14.5q-16 0 -29.5 11.5t-13.5 29.5q0 57 42 95t98 38q39 0 70.5 -15t55 -42t37 -60.5t13.5 -70.5q0 -74 -27 -139.5t-73 -115.5t-110.5 -80t-138.5 -30q-113 0 -177 61.5t-96 150.5t-40 192.5t-8 185.5q0 59 4 119.5t8 120.5q-51 12 -101 28.5t-104 26.5 q0 -80 1 -176t-6 -194.5t-28.5 -191.5t-67.5 -165t-122 -115t-192 -43q-31 0 -66 8.5t-64.5 25t-49 42t-19.5 62.5zM567 1866q0 16 14.5 28.5t30.5 12.5q18 0 31 -15q25 -27 46.5 -54.5t49.5 -49.5q31 -27 64 -50.5t65 -47.5q19 -15 19 -33q0 -16 -12.5 -29.5t-28.5 -13.5 t-62.5 32.5t-94.5 75.5t-85 85t-37 59zM573 940q53 -10 105.5 -25.5t105.5 -27.5q8 96 14.5 189.5t6.5 189.5q0 23 -1 67.5t-9.5 88.5t-26.5 77t-53 33q-41 0 -66.5 -32t-41 -76t-20.5 -90t-5 -77q0 -78 -4.5 -157.5t-4.5 -159.5z" />
<glyph unicode="&#xc1;" horiz-adv-x="1501" d="M-41 111q0 51 38 84.5t87 33.5q41 0 41 -41q0 -23 -12.5 -30.5t-27.5 -12t-28.5 -10.5t-13.5 -24q0 -16 13.5 -27.5t31.5 -18t37.5 -8.5t32.5 -2q119 0 185.5 59.5t99 148.5t39.5 192.5t7 191.5v221h-20q-27 0 -49.5 -8t-38.5 -17t-28.5 -17.5t-22.5 -8.5 q-16 0 -29.5 13.5t-13.5 29.5q0 10 5 17.5t11 13.5q39 35 86 49t100 10q0 78 4.5 154t4.5 153q0 49 10 112t35.5 117t67.5 92t104 38q66 0 100.5 -40t51 -97.5t19.5 -120t3 -109.5q0 -96 -7.5 -190t-15.5 -189q14 -2 28.5 -3t29.5 -1q27 0 48 12.5t37.5 26t31 25.5t28.5 12 q16 0 28.5 -13.5t12.5 -29.5t-12 -29q-35 -35 -79 -60.5t-95 -25.5q-16 0 -33 1t-33 3q-4 -59 -6 -119.5t-2 -119.5q0 -61 4 -146.5t26.5 -162t70.5 -131t136 -54.5q57 0 105.5 23.5t84.5 62.5t55.5 90.5t19.5 106.5q0 39 -26 71.5t-66 32.5q-29 0 -39.5 -14t-14.5 -30.5 t-11 -31t-32 -14.5q-16 0 -29.5 11.5t-13.5 29.5q0 57 42 95t98 38q39 0 70.5 -15t55 -42t37 -60.5t13.5 -70.5q0 -74 -27 -139.5t-73 -115.5t-110.5 -80t-138.5 -30q-113 0 -177 60.5t-97 150.5t-40 192.5t-7 186.5q0 59 4 119.5t8 120.5q-51 12 -101 28.5t-104 26.5 q0 -80 1 -176t-6 -194.5t-28.5 -191.5t-67.5 -165t-122 -115t-192 -43q-31 0 -66 8.5t-64.5 25t-49 42t-19.5 62.5zM543 1657q0 18 18 33q47 37 92 70.5t86 76.5q14 16 36 43t44 27q16 0 29.5 -12.5t13.5 -28.5q0 -10 -17.5 -34t-44 -51.5t-59 -57t-63.5 -54t-55.5 -40 t-36.5 -15.5q-16 0 -29.5 13t-13.5 30zM573 940q53 -10 105.5 -25.5t105.5 -27.5q8 96 14.5 189.5t6.5 189.5q0 23 -1 67.5t-9.5 88.5t-26.5 77t-53 33q-41 0 -66.5 -32t-41 -76t-20.5 -90t-5 -77q0 -78 -4.5 -157.5t-4.5 -159.5z" />
<glyph unicode="&#xc2;" horiz-adv-x="1597" d="M-41 287q0 49 19.5 93t51 76.5t76 52t93.5 19.5q33 0 63.5 -11t55 -32.5t39 -50t14.5 -63.5q0 -16 -12.5 -28.5t-28.5 -12.5q-18 0 -25.5 6t-10.5 15t-5 20.5t-6 21.5q-25 51 -84 51q-66 0 -111 -47t-45 -110q0 -49 17.5 -91t48 -73t72.5 -49.5t91 -18.5q68 0 115 16.5 t79 48.5t51.5 80t31.5 111q12 61 15 124t3 124v252q-4 0 -9 1t-9 1q-23 0 -46.5 -8t-45 -18.5t-38 -18.5t-22.5 -8q-16 0 -29.5 13t-13.5 30q0 16 15 31q39 35 93 48t105 11q0 92 -1 182t-1 182q0 49 10.5 112t35 117t66.5 92t105 38q66 0 101 -40t51 -97.5t19 -120 t3 -109.5q0 -111 -8 -218t-16 -218q16 -2 29 -2h30q27 0 47.5 11.5t38 25.5t32.5 25.5t28 11.5q16 0 28.5 -12.5t12.5 -28.5q0 -12 -13 -29q-33 -35 -79 -62.5t-95 -27.5q-33 0 -67 6q-6 -92 -6 -182q0 -61 4 -146.5t26.5 -162t70.5 -131t136 -54.5q84 0 137.5 49.5 t88 107.5t59 107.5t51.5 49.5q16 0 28.5 -12.5t12.5 -28.5q0 -10 -6 -21q-29 -59 -61.5 -118.5t-77 -107.5t-100.5 -78t-132 -30q-113 0 -177.5 61.5t-96 150.5t-39.5 192.5t-8 185.5q0 47 2 93t6 94q-47 12 -95.5 25t-95.5 24v-240q0 -104 -9 -208.5t-47 -188.5 t-113.5 -136.5t-209.5 -52.5q-66 0 -123 25t-99 66.5t-66.5 99t-24.5 123.5zM537 1669q0 20 23.5 44t37.5 36q25 23 46.5 48.5t41.5 53.5q12 16 34.5 43t45.5 27q10 0 27 -12q27 -25 45 -54.5t41 -56.5q23 -29 50 -52.5t50 -51.5q10 -11 10 -25q0 -16 -12 -28.5t-29 -12.5 q-14 0 -42.5 30t-57.5 64.5t-52.5 65.5t-29.5 33q-6 -12 -32.5 -44t-57.5 -65t-58.5 -58.5t-37.5 -25.5q-16 0 -29.5 12.5t-13.5 28.5zM649 1257q0 -94 1 -187t1 -187q49 -10 98.5 -25.5t98.5 -28.5q10 111 17 219.5t7 219.5q0 25 -1 68.5t-9 86.5t-26.5 76t-53.5 33 q-41 0 -66.5 -32t-41 -76t-20.5 -90t-5 -77z" />
<glyph unicode="&#xc3;" horiz-adv-x="1501" d="M-41 111q0 51 38 84.5t87 33.5q41 0 41 -41q0 -23 -12.5 -30.5t-27.5 -12t-28.5 -10.5t-13.5 -24q0 -16 13.5 -27.5t31.5 -18t37.5 -8.5t32.5 -2q119 0 185.5 59.5t99 148.5t39.5 192.5t7 191.5v221h-20q-27 0 -49.5 -8t-38.5 -17t-28.5 -17.5t-22.5 -8.5 q-16 0 -29.5 13.5t-13.5 29.5q0 10 5 17.5t11 13.5q39 35 86 49t100 10q0 78 4.5 154t4.5 153q0 49 10 112t35.5 117t67.5 92t104 38q66 0 100.5 -40t51 -97.5t19.5 -120t3 -109.5q0 -96 -7.5 -190t-15.5 -189q14 -2 28.5 -3t29.5 -1q27 0 48 12.5t37.5 26t31 25.5t28.5 12 q16 0 28.5 -13.5t12.5 -29.5t-12 -29q-35 -35 -79 -60.5t-95 -25.5q-16 0 -33 1t-33 3q-4 -59 -6 -119.5t-2 -119.5q0 -61 4 -146.5t26.5 -162t70.5 -131t136 -54.5q57 0 105.5 23.5t84.5 62.5t55.5 90.5t19.5 106.5q0 39 -26 71.5t-66 32.5q-29 0 -39.5 -14t-14.5 -30.5 t-11 -31t-32 -14.5q-16 0 -29.5 11.5t-13.5 29.5q0 57 42 95t98 38q39 0 70.5 -15t55 -42t37 -60.5t13.5 -70.5q0 -74 -27 -139.5t-73 -115.5t-110.5 -80t-138.5 -30q-113 0 -177 60.5t-97 150.5t-40 192.5t-7 186.5q0 59 4 119.5t8 120.5q-51 12 -101 28.5t-104 26.5 q0 -80 1 -176t-6 -194.5t-28.5 -191.5t-67.5 -165t-122 -115t-192 -43q-31 0 -66 8.5t-64.5 25t-49 42t-19.5 62.5zM432 1749q0 16 21.5 42t50 49.5t58.5 40.5t46 17q43 0 71 -23.5t49.5 -52t42 -53t48.5 -26.5q10 6 28.5 21.5t40 33t40 29.5t24.5 12q16 0 28.5 -13.5 t12.5 -29.5q0 -14 -21.5 -37.5t-50 -45t-56 -38t-42.5 -16.5q-47 0 -79.5 24.5t-55 54t-41 54.5t-39.5 25q-12 0 -28.5 -17.5t-34 -38t-35.5 -38t-33 -17.5q-16 0 -30.5 13.5t-14.5 29.5zM573 940q53 -10 105.5 -25.5t105.5 -27.5q8 96 14.5 189.5t6.5 189.5q0 23 -1 67.5 t-9.5 88.5t-26.5 77t-53 33q-41 0 -66.5 -32t-41 -76t-20.5 -90t-5 -77q0 -78 -4.5 -157.5t-4.5 -159.5z" />
<glyph unicode="&#xc4;" horiz-adv-x="1501" d="M-41 111q0 51 38 84.5t87 33.5q41 0 41 -41q0 -23 -12.5 -30.5t-27.5 -12t-28.5 -10.5t-13.5 -24q0 -16 13.5 -27.5t31.5 -18t37.5 -8.5t32.5 -2q119 0 185.5 59.5t99 148.5t39.5 192.5t7 191.5v219q-4 0 -9 1t-11 1q-27 0 -49.5 -8t-38.5 -17t-28.5 -17.5t-22.5 -8.5 q-16 0 -29.5 12.5t-13.5 28.5q0 10 5 18.5t11 14.5q39 35 86 49t100 10q0 78 4.5 153t4.5 152q0 49 10 112t35.5 118t67.5 93t104 38q66 0 100.5 -40t51 -98.5t19.5 -121t3 -109.5q0 -96 -7.5 -189t-15.5 -188q14 -2 28.5 -3t29.5 -1q27 0 48 12.5t37.5 26t31 25.5t28.5 12 q16 0 28.5 -13.5t12.5 -29.5t-12 -29q-35 -35 -79 -61.5t-95 -26.5q-16 0 -33 1t-33 3q-4 -59 -6 -118.5t-2 -118.5q0 -61 4 -146.5t26.5 -162t70.5 -131t136 -54.5q57 0 105.5 23.5t84.5 62.5t55.5 90.5t19.5 106.5q0 39 -26 71.5t-66 32.5q-29 0 -39.5 -14t-14.5 -30.5 t-11 -31t-32 -14.5q-16 0 -29.5 11.5t-13.5 29.5q0 57 42 95t98 38q39 0 70.5 -15t55 -42t37 -60.5t13.5 -70.5q0 -74 -27 -139.5t-73 -115.5t-110.5 -80t-138.5 -30q-113 0 -177 60.5t-96 150.5t-40 192.5t-8 186.5q0 59 4 119.5t8 120.5q-51 12 -101 27.5t-104 25.5 q0 -80 1 -176t-6 -194.5t-28.5 -190.5t-67.5 -164t-122 -115t-192 -43q-31 0 -66 8.5t-64.5 25t-49 42t-19.5 62.5zM508 1731q0 37 28.5 63.5t65.5 26.5t63.5 -26.5t26.5 -63.5t-26.5 -65t-63.5 -28t-65.5 28t-28.5 65zM573 940q53 -10 105.5 -26.5t105.5 -28.5 q8 96 14.5 190.5t6.5 190.5q0 23 -1 66.5t-9.5 87.5t-26.5 77t-53 33q-41 0 -66.5 -32t-41 -76t-20.5 -90t-5 -77q0 -78 -4.5 -156.5t-4.5 -158.5zM739 1731q0 37 28 63.5t64 26.5q37 0 64 -26.5t27 -63.5t-27 -65t-64 -28t-64.5 28t-27.5 65z" />
<glyph unicode="&#xc5;" horiz-adv-x="1501" d="M-41 111q0 51 38 84.5t87 33.5q41 0 41 -41q0 -23 -12.5 -30.5t-27.5 -12t-28.5 -10.5t-13.5 -24q0 -16 13.5 -27.5t31.5 -18t37.5 -8.5t32.5 -2q119 0 185.5 59.5t99 147.5t39.5 191.5t7 191.5v219q-4 0 -9 1t-11 1q-27 0 -49.5 -8t-38.5 -17.5t-28.5 -17.5t-22.5 -8 q-16 0 -29.5 12.5t-13.5 28.5q0 10 5 18.5t11 14.5q39 35 86 49t100 10q0 78 4.5 153t4.5 152q0 49 10 111.5t35.5 117t67.5 92.5t104 38q66 0 100.5 -40t51 -97.5t19.5 -120t3 -109.5q0 -96 -7.5 -189t-15.5 -188q14 -2 28.5 -3t29.5 -1q27 0 48 12.5t37.5 25.5t31 25.5 t28.5 12.5q16 0 28.5 -13.5t12.5 -29.5t-12 -29q-35 -35 -79 -60.5t-95 -25.5q-16 0 -33 1t-33 3q-4 -59 -6 -119.5t-2 -119.5q0 -61 4 -146.5t26.5 -162t70.5 -130t136 -53.5q57 0 105.5 23.5t84.5 61.5t55.5 89.5t19.5 106.5q0 39 -26 72.5t-66 33.5q-29 0 -39.5 -14 t-14.5 -30.5t-11 -31t-32 -14.5q-16 0 -29.5 11.5t-13.5 29.5q0 57 42 94t98 37q39 0 70.5 -15t55 -42t37 -60.5t13.5 -70.5q0 -74 -27 -139.5t-73 -114.5t-110.5 -79t-138.5 -30q-113 0 -177 60.5t-96 149.5t-40 191.5t-8 186.5q0 59 4 119.5t8 120.5q-51 12 -101 27.5 t-104 25.5q0 -80 1 -176t-6 -194.5t-28.5 -189.5t-67.5 -163t-122 -115t-192 -43q-31 0 -66 8.5t-64.5 25t-49 42t-19.5 62.5zM573 938q53 -10 105.5 -25.5t105.5 -27.5q8 96 14.5 189.5t6.5 189.5q0 23 -1 66.5t-9.5 87.5t-26.5 77t-53 33q-41 0 -66.5 -32t-41 -76 t-20.5 -90t-5 -77q0 -78 -4.5 -157.5t-4.5 -157.5zM573 1772q0 55 42 89.5t96 34.5q53 0 95 -34.5t42 -89.5t-42 -91t-95 -36t-95.5 35.5t-42.5 91.5zM643 1772q0 -29 19.5 -47.5t48.5 -18.5t49 18.5t20 47.5t-21.5 46t-47.5 17q-27 0 -47.5 -17.5t-20.5 -45.5z" />
<glyph unicode="&#xc6;" horiz-adv-x="1736" d="M-41 287q0 49 18.5 93t51 75.5t75.5 51t93 19.5q33 0 64.5 -11t56 -31.5t39 -49t14.5 -63.5q0 -18 -13.5 -29.5t-29.5 -11.5t-28.5 11t-12.5 30q0 35 -30 54t-60 19q-66 0 -110 -46t-44 -111q0 -49 17.5 -91t47 -73t71.5 -49.5t91 -18.5q66 0 113 14.5t79 44t52.5 76 t32.5 107.5q16 80 20 163t4 165q0 47 -2 92t-2 92h-26q-23 0 -44.5 -7t-40 -16.5t-32.5 -17.5t-23 -8q-16 0 -29.5 12t-13.5 29q0 16 15 30q39 35 92 51.5t104 10.5v162q0 39 -2 74.5t-2 74.5q0 55 6.5 126t28 132.5t65.5 104.5t117 43q43 0 76 -21.5t55.5 -54.5t33.5 -73 t11 -77q0 -123 -26.5 -239.5t-50.5 -235.5q68 90 161 142q-20 45 -29 93t-9 97q0 82 45 150.5t112.5 119t145 78t141.5 27.5q80 0 141.5 -47t61.5 -139q0 -57 -29 -104.5t-73 -81.5t-98 -53.5t-105 -19.5q-16 0 -28.5 11.5t-12.5 29.5t12 29.5t29 11.5q33 0 70.5 13.5 t71.5 37t56.5 56.5t22.5 70q0 53 -38 77.5t-81 24.5q-55 0 -117.5 -24.5t-117 -65.5t-90.5 -93.5t-36 -107.5q0 -84 33 -156q53 18 106.5 26.5t108.5 8.5q31 0 68 -7t68.5 -23.5t53 -43t21.5 -65.5q0 -37 -22.5 -63.5t-56 -42t-70.5 -22.5t-68 -7q-76 0 -138.5 36t-105.5 95 q-117 -66 -175 -178.5t-58 -243.5q0 -98 38 -188.5t102.5 -160t151.5 -110.5t185 -41q55 0 111.5 21.5t101.5 60.5t74 90.5t29 108.5q0 39 -27 72.5t-64 33.5q-51 0 -69.5 -12t-23.5 -26.5t-7 -26.5t-22 -12q-23 0 -37.5 18t-14.5 39q0 31 19.5 51.5t47.5 31.5t57.5 15 t49.5 4q37 0 69 -15t55.5 -42t37 -60.5t13.5 -70.5q0 -76 -36 -142.5t-92.5 -115.5t-128 -78t-145.5 -29q-119 0 -218 46t-172 125t-117 183.5t-52 219.5q-2 25 -2 49v51q0 33 2 64.5t6 64.5q-31 4 -61.5 10.5t-61.5 12.5v-240q0 -102 -10 -206.5t-48 -188.5t-114 -136.5 t-209 -52.5q-66 0 -123 25t-99 66.5t-65.5 99t-23.5 123.5zM651 1204q0 -82 1 -162.5t1 -162.5q35 -6 67 -12.5t66 -10.5q12 66 26.5 131.5l29 131t23.5 131.5t9 134q0 18 -5 43t-16 47.5t-28.5 38t-42.5 15.5q-49 0 -75.5 -38t-39 -90t-14.5 -106.5t-2 -89.5zM1163 1012 q31 -39 74 -61.5t92 -22.5q12 0 34.5 2t44.5 8t38 16.5t16 26.5q0 18 -15 29.5t-35.5 17.5t-42 8t-34.5 2q-43 0 -87 -6t-85 -20z" />
<glyph unicode="&#xc7;" horiz-adv-x="1179" d="M-41 1237q0 86 38 156.5t99.5 121t139 77t157.5 26.5q18 0 30.5 -11.5t12.5 -29.5t-12 -29.5t-31 -11.5q-63 0 -125.5 -20.5t-113 -59.5t-81 -94t-30.5 -125q0 -72 28.5 -141.5t88.5 -114.5q29 109 82 221.5t130 204.5t178 151.5t228 59.5q45 0 81 -19.5t61.5 -50 t39 -70.5t13.5 -81q0 -127 -58.5 -229.5t-150.5 -173t-209 -108.5t-233 -38q-27 0 -52.5 2t-50.5 10q-12 -68 -17 -135.5t-5 -136.5q0 -96 29.5 -192.5t87 -173.5t140.5 -124t189 -47q55 0 111.5 18.5t101.5 53.5t72.5 84t27.5 110q0 45 -29.5 83t-76.5 38q-37 0 -51.5 -12 t-20.5 -27.5t-12 -28t-29 -12.5q-41 0 -41 41q0 31 14.5 53.5t37 38t49 22.5t53.5 7q41 0 76 -16.5t60.5 -45t39.5 -64.5t14 -77q0 -74 -31.5 -135t-83 -106t-117 -73t-134.5 -34q0 -47 -6 -96q29 -2 60.5 -15.5t58 -35t44 -49t17.5 -60.5t-17.5 -57.5t-43 -40.5 t-56.5 -24.5t-59 -8.5q-55 0 -109.5 19.5t-79.5 74.5q-2 4 -2 17q0 16 12.5 27.5t28.5 11.5q18 0 25.5 -10.5t20 -23.5t35 -23.5t69.5 -10.5q10 0 25.5 3t30.5 9.5t25.5 15.5t10.5 21t-11.5 26.5t-27.5 25t-33.5 17.5t-29.5 7t-24.5 -8t-29.5 -8q-16 0 -26.5 11t-10.5 28 q0 8 2 12q10 35 12.5 71.5t4.5 73.5q-113 12 -202 70.5t-150.5 145.5t-93 192.5t-31.5 210.5q0 78 6 154.5t22 152.5q-92 53 -137 145.5t-45 196.5zM238 942q41 -12 84 -12q98 0 199.5 31.5t183 92t133 146.5t51.5 197q0 23 -7.5 47t-21.5 44.5t-34.5 34t-47.5 13.5 q-111 0 -201 -57.5t-157.5 -145.5t-112.5 -192.5t-69 -198.5z" />
<glyph unicode="&#xc8;" horiz-adv-x="1067" d="M-41 1346q0 61 43 111t105.5 85t131 54.5t119.5 19.5q16 0 28.5 -11.5t12.5 -29.5t-12 -29.5t-29 -11.5q-33 0 -86 -14.5t-104 -40t-88 -59.5t-37 -74q0 -41 27.5 -69t65.5 -46.5t81 -27.5t74 -13q-2 10 -2 20v23q0 78 42 147.5t107.5 121.5t144.5 83t150 31 q88 0 142.5 -47t54.5 -139q0 -88 -57.5 -148.5t-140.5 -98.5t-175 -56.5t-160 -22.5q12 -27 31 -49q43 14 88 22t90 8q20 0 47 -5t50.5 -16t40 -29.5t16.5 -43.5q0 -29 -14.5 -50t-38 -35.5t-50 -21.5t-51.5 -7q-53 0 -103 21.5t-91 55.5q-113 -51 -179.5 -151.5 t-66.5 -222.5q0 -94 31.5 -188.5t90 -169.5t141.5 -121t185 -46q55 0 111.5 21.5t100.5 60.5t73 90.5t29 108.5q0 39 -25.5 72.5t-66.5 33.5q-45 0 -61.5 -12t-23 -26.5t-10.5 -26.5t-26 -12q-23 0 -37 18t-14 39q0 25 19 44t47 32.5t56.5 19.5t49.5 6q37 0 69.5 -15t56 -42 t37 -60.5t13.5 -70.5q0 -76 -35 -142.5t-91.5 -115.5t-127 -77t-144.5 -28q-121 0 -219 52.5t-167.5 138.5t-107.5 194.5t-38 221.5q0 141 70.5 258.5t199.5 181.5q-14 20 -25.5 40.5t-19.5 43.5q-49 4 -110.5 19.5t-113.5 44t-88 72.5t-36 106zM373 1208q0 -10 2 -22 q49 2 129 15t155.5 42t131 74t55.5 113q0 55 -30 79.5t-83 24.5q-49 0 -97 -15.5t-92 -43t-80 -63.5t-61 -79q-12 -23 -21 -47t-9 -53v-25zM510 989q16 -16 45 -22t51 -6q10 0 36 5t26 21q0 4 -8.5 7t-18.5 5t-20 2h-13q-25 0 -49 -4t-49 -8zM530 1866q0 16 14.5 28.5 t30.5 12.5q18 0 31 -15q25 -27 47.5 -53.5t51.5 -50.5q31 -27 64.5 -49.5t64.5 -48.5q16 -13 16 -33q0 -16 -12.5 -29.5t-28.5 -13.5t-61.5 33.5t-93.5 76.5t-86 84t-38 58z" />
<glyph unicode="&#xc9;" horiz-adv-x="1067" d="M-41 1346q0 61 43 111t105.5 85t131 54.5t119.5 19.5q16 0 28.5 -11.5t12.5 -29.5t-12 -29.5t-29 -11.5q-33 0 -86 -14.5t-104 -40t-88 -59.5t-37 -74q0 -41 27.5 -69t65.5 -46.5t81 -27.5t74 -13q-2 10 -2 20v23q0 78 42 147.5t107.5 121.5t144.5 83t150 31 q88 0 142.5 -47t54.5 -139q0 -88 -57.5 -148.5t-140.5 -98.5t-175 -56.5t-160 -22.5q12 -27 31 -49q43 14 88 22t90 8q20 0 47 -5t50.5 -16t40 -29.5t16.5 -43.5q0 -29 -14.5 -50t-38 -35.5t-50 -21.5t-51.5 -7q-53 0 -103 21.5t-91 55.5q-113 -51 -179.5 -151.5 t-66.5 -222.5q0 -94 31.5 -188.5t90 -169.5t141.5 -121t185 -46q55 0 111.5 21.5t100.5 60.5t73 90.5t29 108.5q0 39 -25.5 72.5t-66.5 33.5q-45 0 -61.5 -12t-23 -26.5t-10.5 -26.5t-26 -12q-23 0 -37 18t-14 39q0 25 19 44t47 32.5t56.5 19.5t49.5 6q37 0 69.5 -15t56 -42 t37 -60.5t13.5 -70.5q0 -76 -35 -142.5t-91.5 -115.5t-127 -77t-144.5 -28q-121 0 -219 52.5t-167.5 138.5t-107.5 194.5t-38 221.5q0 141 70.5 258.5t199.5 181.5q-14 20 -25.5 40.5t-19.5 43.5q-49 4 -110.5 19.5t-113.5 44t-88 72.5t-36 106zM373 1208q0 -10 2 -22 q49 2 129 15t155.5 42t131 74t55.5 113q0 55 -30 79.5t-83 24.5q-49 0 -97 -15.5t-92 -43t-80 -63.5t-61 -79q-12 -23 -21 -47t-9 -53v-25zM510 989q16 -16 45 -22t51 -6q10 0 36 5t26 21q0 4 -8.5 7t-18.5 5t-20 2h-13q-25 0 -49 -4t-49 -8zM528 1647q0 12 10.5 25.5 t26 26.5t30.5 23.5t23 16.5q31 23 60 45t53 51q10 12 32.5 37.5t41.5 25.5q16 0 29.5 -13.5t13.5 -29.5t-37 -57t-84 -84t-92 -75.5t-64 -32.5q-16 0 -29.5 12t-13.5 29z" />
<glyph unicode="&#xca;" horiz-adv-x="1067" d="M-41 1346q0 61 43 111t105.5 85t131 54.5t119.5 19.5q16 0 28.5 -11.5t12.5 -29.5t-12 -29.5t-29 -11.5q-33 0 -86 -14.5t-104 -40t-88 -59.5t-37 -74q0 -41 27.5 -69t65.5 -46.5t81 -27.5t74 -13q-2 10 -2 20v23q0 78 42 147.5t107.5 121.5t144.5 83t150 31 q88 0 142.5 -47t54.5 -139q0 -88 -57.5 -148.5t-140.5 -98.5t-175 -56.5t-160 -22.5q12 -27 31 -49q43 14 88 22t90 8q20 0 47 -5t50.5 -16t40 -29.5t16.5 -43.5q0 -29 -14.5 -50t-38 -35.5t-50 -21.5t-51.5 -7q-53 0 -103 21.5t-91 55.5q-113 -51 -179.5 -151.5 t-66.5 -222.5q0 -94 31.5 -188.5t90 -169.5t141.5 -121t185 -46q55 0 111.5 21.5t100.5 60.5t73 90.5t29 108.5q0 39 -25.5 72.5t-66.5 33.5q-45 0 -61.5 -12t-23 -26.5t-10.5 -26.5t-26 -12q-23 0 -37 18t-14 39q0 25 19 44t47 32.5t56.5 19.5t49.5 6q37 0 69.5 -15t56 -42 t37 -60.5t13.5 -70.5q0 -76 -35 -142.5t-91.5 -115.5t-127 -77t-144.5 -28q-121 0 -219 52.5t-167.5 138.5t-107.5 194.5t-38 221.5q0 141 70.5 258.5t199.5 181.5q-14 20 -25.5 40.5t-19.5 43.5q-49 4 -110.5 19.5t-113.5 44t-88 72.5t-36 106zM371 1669q0 20 23.5 44 t37.5 36q25 23 46.5 48.5t41.5 53.5q12 16 35 43t45 27q10 0 27 -12q27 -25 45 -54.5t41 -56.5q23 -29 50.5 -52.5t49.5 -51.5q10 -11 10 -25q0 -16 -12 -28.5t-29 -12.5q-14 0 -42.5 30t-57.5 64.5t-52.5 65.5t-29.5 33q-6 -12 -32.5 -44t-57.5 -65t-58.5 -58.5 t-37.5 -25.5q-16 0 -29.5 12.5t-13.5 28.5zM373 1208q0 -10 2 -22q49 2 129 15t155.5 42t131 74t55.5 113q0 55 -30 79.5t-83 24.5q-49 0 -97 -15.5t-92 -43t-80 -63.5t-61 -79q-12 -23 -21 -47t-9 -53v-25zM510 989q16 -16 45 -22t51 -6q10 0 36 5t26 21q0 4 -8.5 7 t-18.5 5t-20 2h-13q-25 0 -49 -4t-49 -8z" />
<glyph unicode="&#xcb;" horiz-adv-x="1067" d="M-41 1346q0 61 43 111t105.5 85t131 54.5t119.5 19.5q16 0 28.5 -11.5t12.5 -29.5t-12 -29.5t-29 -11.5q-33 0 -86 -14.5t-104 -40t-88 -59.5t-37 -74q0 -41 27.5 -69t65.5 -46.5t81 -27.5t74 -13q-2 10 -2 20v23q0 78 42 147.5t107.5 121.5t144.5 83t150 31 q88 0 142.5 -47t54.5 -139q0 -88 -57.5 -148.5t-140.5 -98.5t-175 -56.5t-160 -22.5q12 -27 31 -49q43 14 88 22t90 8q20 0 47 -5t50.5 -16t40 -29.5t16.5 -43.5q0 -29 -14.5 -50t-38 -35.5t-50 -21.5t-51.5 -7q-53 0 -103 21.5t-91 55.5q-113 -51 -179.5 -151.5 t-66.5 -222.5q0 -94 31.5 -188.5t90 -169.5t141.5 -121t185 -46q55 0 111.5 21.5t100.5 60.5t73 90.5t29 108.5q0 39 -25.5 72.5t-66.5 33.5q-45 0 -61.5 -12t-23 -26.5t-10.5 -26.5t-26 -12q-23 0 -37 18t-14 39q0 25 19 44t47 32.5t56.5 19.5t49.5 6q37 0 69.5 -15t56 -42 t37 -60.5t13.5 -70.5q0 -76 -35 -142.5t-91.5 -115.5t-127 -77t-144.5 -28q-121 0 -219 52.5t-167.5 138.5t-107.5 194.5t-38 221.5q0 141 70.5 258.5t199.5 181.5q-14 20 -25.5 40.5t-19.5 43.5q-49 4 -110.5 19.5t-113.5 44t-88 72.5t-36 106zM348 1731q0 37 29 63.5 t65 26.5q37 0 63.5 -26.5t26.5 -63.5t-26.5 -65t-63.5 -28t-65.5 28t-28.5 65zM373 1208q0 -10 2 -22q49 2 129 15t155.5 42t131 74t55.5 113q0 55 -30 79.5t-83 24.5q-49 0 -97 -15.5t-92 -43t-80 -63.5t-61 -79q-12 -23 -21 -47t-9 -53v-25zM510 989q16 -16 45 -22t51 -6 q10 0 36 5t26 21q0 4 -8.5 7t-18.5 5t-20 2h-13q-25 0 -49 -4t-49 -8zM580 1731q0 37 27.5 63.5t64.5 26.5t63.5 -26.5t26.5 -63.5t-26.5 -65t-63.5 -28t-64.5 28t-27.5 65z" />
<glyph unicode="&#xcc;" horiz-adv-x="778" d="M-41 1313q0 76 38 134t96.5 97t129 58.5t137.5 19.5q31 0 68 -10t74 -25.5t72.5 -33t66.5 -29.5q29 45 72 70.5t96 25.5q25 0 52.5 -6t51 -18.5t40 -33t16.5 -49.5t-15.5 -50t-40 -34.5t-52 -19.5t-52.5 -6q-63 0 -123 18q-23 -66 -32 -142.5t-9 -143.5q0 -156 2 -311.5 t2 -311.5q0 -98 -17.5 -194.5t-61.5 -173t-119.5 -124t-192.5 -47.5q-31 0 -65.5 8.5t-64.5 25t-49.5 42t-19.5 62.5q0 51 38 84.5t87 33.5q41 0 41 -41q0 -23 -12 -30.5t-27.5 -12t-28 -10.5t-12.5 -24q0 -16 13.5 -27.5t31 -18t37 -8.5t31.5 -2q96 0 155.5 42t93.5 108.5 t46 147.5t12 159q0 156 -2 311.5t-2 311.5q0 78 9.5 159.5t35.5 153.5q-23 10 -55.5 25.5t-67 30t-67.5 25.5t-56 11q-49 0 -104 -14.5t-102.5 -42t-79 -70.5t-31.5 -100q0 -29 10 -57.5t28.5 -52t44.5 -38t58 -14.5q47 0 87 28.5t40 80.5q0 18 12.5 29t30.5 11q41 0 41 -40 q0 -43 -17.5 -78t-47 -60.5t-67.5 -39t-79 -13.5q-49 0 -91 20.5t-71.5 54.5t-46 78t-16.5 91zM313 1866q0 16 14.5 28.5t30.5 12.5q18 0 31 -15q25 -27 47.5 -53.5t50.5 -50.5q31 -27 65 -49.5t64 -48.5q17 -13 17 -33q0 -16 -12.5 -29.5t-28.5 -13.5t-61.5 33.5 t-93.5 76.5t-86 84t-38 58zM727 1495q45 -10 82 -10q6 0 18.5 1t24.5 4t21.5 9t9.5 14q0 10 -9.5 14.5t-21.5 7.5t-25 3h-18q-49 0 -82 -43z" />
<glyph unicode="&#xcd;" horiz-adv-x="778" d="M-41 1313q0 76 38 134t96.5 97t129 58.5t137.5 19.5q31 0 68 -10t74 -25.5t72.5 -33t66.5 -29.5q29 45 72 70.5t96 25.5q25 0 52.5 -6t51 -18.5t40 -33t16.5 -49.5t-15.5 -50t-40 -34.5t-52 -19.5t-52.5 -6q-63 0 -123 18q-23 -66 -32 -142.5t-9 -143.5q0 -156 2 -311.5 t2 -311.5q0 -98 -17.5 -194.5t-61.5 -173t-119.5 -124t-192.5 -47.5q-31 0 -65.5 8.5t-64.5 25t-49.5 42t-19.5 62.5q0 51 38 84.5t87 33.5q41 0 41 -41q0 -23 -12 -30.5t-27.5 -12t-28 -10.5t-12.5 -24q0 -16 13.5 -27.5t31 -18t37 -8.5t31.5 -2q96 0 155.5 42t93.5 108.5 t46 147.5t12 159q0 156 -2 311.5t-2 311.5q0 78 9.5 159.5t35.5 153.5q-23 10 -55.5 25.5t-67 30t-67.5 25.5t-56 11q-49 0 -104 -14.5t-102.5 -42t-79 -70.5t-31.5 -100q0 -29 10 -57.5t28.5 -52t44.5 -38t58 -14.5q47 0 87 28.5t40 80.5q0 18 12.5 29t30.5 11q41 0 41 -40 q0 -43 -17.5 -78t-47 -60.5t-67.5 -39t-79 -13.5q-49 0 -91 20.5t-71.5 54.5t-46 78t-16.5 91zM438 1657q0 18 19 33q47 37 92 70.5t86 76.5q14 16 35.5 43t44.5 27q16 0 29.5 -12.5t13.5 -28.5q0 -10 -17.5 -34t-44 -51.5t-59.5 -57t-63.5 -54t-55 -40t-37.5 -15.5 q-16 0 -29.5 13t-13.5 30zM727 1495q45 -10 82 -10q6 0 18.5 1t24.5 4t21.5 9t9.5 14q0 10 -9.5 14.5t-21.5 7.5t-25 3h-18q-49 0 -82 -43z" />
<glyph unicode="&#xce;" horiz-adv-x="778" d="M-41 1313q0 76 38 134t96.5 97t129 58.5t137.5 19.5q31 0 68 -10t74 -25.5t72.5 -33t66.5 -29.5q29 45 72 70.5t96 25.5q25 0 52.5 -6t51 -18.5t40 -33t16.5 -49.5t-15.5 -50t-40 -34.5t-52 -19.5t-52.5 -6q-63 0 -123 18q-23 -66 -32 -141.5t-9 -142.5q0 -156 2 -312.5 t2 -312.5q0 -98 -17.5 -194.5t-61.5 -173t-119.5 -124t-192.5 -47.5q-31 0 -65.5 8.5t-64.5 25t-49.5 42t-19.5 62.5q0 51 38 84.5t87 33.5q41 0 41 -41q0 -23 -12 -30.5t-27.5 -12t-28 -10.5t-12.5 -24q0 -16 13.5 -27.5t31 -18t37 -8.5t31.5 -2q96 0 155.5 42t93.5 108.5 t46 147.5t12 159q0 156 -2 312.5t-2 312.5q0 78 9.5 158.5t35.5 152.5q-23 10 -55.5 25.5t-67 30t-67.5 25.5t-56 11q-49 0 -104 -14.5t-102.5 -42t-79 -70.5t-31.5 -100q0 -29 10 -57.5t28.5 -52t44.5 -38t58 -14.5q47 0 87 28.5t40 80.5q0 18 12.5 29t30.5 11q41 0 41 -40 q0 -43 -17.5 -78t-47 -60.5t-67.5 -39t-79 -13.5q-49 0 -91 20.5t-71.5 54.5t-46 78t-16.5 91zM317 1669q0 20 24 44t38 36q25 23 46 48.5t42 53.5q12 16 34.5 43t45.5 27q10 0 26 -12q27 -25 45.5 -54.5t40.5 -56.5q23 -29 50.5 -52.5t50.5 -51.5q10 -11 10 -25 q0 -16 -12.5 -28.5t-28.5 -12.5q-14 0 -43 30t-57.5 64.5t-52 65.5t-29.5 33q-6 -12 -33 -44t-57.5 -65t-58 -58.5t-38.5 -25.5q-16 0 -29.5 12.5t-13.5 28.5zM727 1495q45 -10 82 -10q6 0 18.5 1t24.5 4t21.5 9t9.5 14q0 10 -9.5 14.5t-21.5 7.5t-25 3h-18q-49 0 -82 -43z " />
<glyph unicode="&#xcf;" horiz-adv-x="778" d="M-41 1313q0 76 38 134t96.5 97t129 58.5t137.5 19.5q31 0 68 -11.5t74 -26.5t72.5 -32.5t66.5 -29.5q29 45 72 71.5t96 26.5q25 0 52.5 -6t51 -19.5t40 -34t16.5 -49.5t-15.5 -50t-40 -34.5t-52 -19.5t-52.5 -6q-31 0 -62.5 5t-60.5 15q-23 -66 -32 -142.5t-9 -143.5 q0 -156 2 -311.5t2 -311.5q0 -98 -17.5 -194.5t-62.5 -173t-119.5 -124t-191.5 -47.5q-31 0 -65.5 8.5t-64.5 25t-49.5 42t-19.5 62.5q0 51 38 84.5t87 33.5q41 0 41 -41q0 -23 -12 -30.5t-27.5 -12t-28 -10.5t-12.5 -24q0 -16 13.5 -27.5t31 -18t37 -8.5t31.5 -2 q96 0 155.5 42t93.5 108.5t46 147.5t12 159q0 156 -2 311.5t-2 311.5q0 78 9.5 158.5t35.5 152.5q-23 10 -55.5 25.5t-67 30t-67.5 25.5t-56 11q-49 0 -104 -13.5t-102.5 -41t-79 -70.5t-31.5 -100q0 -29 10 -58.5t28.5 -53t44.5 -38t58 -14.5q47 0 87 28.5t40 79.5 q0 18 13.5 29.5t29.5 11.5t28.5 -11t12.5 -30q0 -43 -17.5 -77.5t-47 -60t-67.5 -39t-79 -13.5q-49 0 -90 20.5t-71.5 54.5t-47 79t-16.5 92zM295 1731q0 37 28.5 63.5t65.5 26.5t63.5 -26.5t26.5 -63.5t-26.5 -65t-63.5 -28t-65.5 28t-28.5 65zM526 1731q0 37 28 63.5 t64 26.5q37 0 64 -26.5t27 -63.5t-27 -65t-64 -28t-64.5 28t-27.5 65zM727 1495q45 -10 82 -10q6 0 18.5 1t24.5 3t21.5 8t9.5 14q0 10 -9.5 14.5t-21.5 7.5t-25 3h-18q-51 0 -82 -41z" />
<glyph unicode="&#xd1;" horiz-adv-x="1284" d="M-41 246q0 51 13.5 102t41 91t70.5 64.5t100 24.5q33 0 65 -11t56.5 -30.5t39.5 -48t15 -63.5q0 -18 -12 -29.5t-29 -11.5q-16 0 -29.5 12t-13.5 29q0 35 -31.5 52t-60.5 17q-39 0 -65.5 -18t-44 -48t-24.5 -64.5t-7 -67.5t23.5 -69t58.5 -65.5t74 -49t69 -19.5 q100 0 153.5 43t78 109.5t28.5 147.5t4 155q0 219 -5 438t-5 438q0 31 4 70t16.5 72.5t37 56t65.5 22.5q35 0 58.5 -41t40 -96t24.5 -109.5t12 -78.5q23 -141 40.5 -279.5t33.5 -279.5q16 -135 33.5 -268.5t46.5 -264.5q4 -14 8 -35.5t13.5 -42t22.5 -35t32 -14.5 q29 0 44 31t22 71t10.5 79.5t3.5 58.5q2 72 3 143.5t1 143.5q0 160 -2 316.5t-2 315.5q0 59 5 126t26.5 125.5t66.5 96t123 37.5q33 0 72.5 -16t73.5 -44t56.5 -61.5t22.5 -70.5t-7 -80t-25.5 -78t-49.5 -58.5t-78 -23.5q-16 0 -29.5 12.5t-13.5 28.5q0 18 13.5 29.5 t29.5 11.5q25 0 40.5 17.5t23.5 43t10 52t2 45.5q0 18 -16.5 37.5t-39 36t-46 26.5t-39.5 10q-49 0 -77 -29.5t-41 -72.5t-16 -90t-3 -82q0 -182 3 -361.5t3 -361.5q0 -78 -1 -152.5t-10 -152.5q-4 -35 -12 -77t-25.5 -79t-47 -61.5t-74.5 -24.5q-47 0 -77 27t-48.5 66.5 t-28.5 85t-16 79.5q-47 279 -80 556.5t-80 555.5q-2 10 -5 38t-8 57.5t-12.5 53t-13.5 23.5q-12 0 -19.5 -16t-10.5 -36.5t-4 -41t-1 -28.5q0 -223 5 -445.5t5 -445.5q0 -96 -8 -191.5t-43 -172.5t-104.5 -125t-192.5 -48q-49 0 -103 25.5t-100.5 66.5t-76 92.5t-29.5 100.5 zM709 1749q0 16 21.5 42t50 49.5t57 40.5t45.5 17q43 0 70.5 -23.5t49 -52t43 -53t50.5 -26.5q10 6 28.5 21.5t39 33t39 29.5t24.5 12q16 0 28.5 -13.5t12.5 -29.5q0 -14 -21.5 -37.5t-49.5 -45t-55.5 -38t-41.5 -16.5q-47 0 -80 24.5t-56.5 54t-42 54.5t-38.5 25 q-12 0 -28.5 -17.5t-34 -38t-36 -38t-32.5 -17.5q-16 0 -29.5 13.5t-13.5 29.5z" />
<glyph unicode="&#xd2;" horiz-adv-x="1349" d="M-41 782q0 115 19.5 223.5t64.5 206t116.5 179.5t174.5 141q10 6 22 6q16 0 27.5 -14.5t11.5 -30.5q0 -12 -5 -19.5t-15 -13.5q-29 -20 -57.5 -39.5t-55.5 -42.5q-61 -55 -102 -125.5t-67.5 -148.5t-38 -161t-11.5 -161q0 -131 35 -262t105.5 -233.5t180 -167 t259.5 -64.5q145 0 251.5 70t178 177.5t106.5 239.5t35 257q0 68 -13.5 147.5t-41 158.5t-68.5 152.5t-95 131t-123 91t-151 33.5q-76 0 -136 -28.5t-100 -76.5t-61.5 -112.5t-21.5 -136.5q0 -35 23.5 -65.5t60.5 -30.5q25 0 40 16.5t24.5 40t13.5 49t4 43.5t13 29.5 t30 11.5q16 0 28.5 -11t12.5 -30q0 -37 -10.5 -76.5t-30 -74.5t-51 -57.5t-74.5 -22.5q-37 0 -67.5 15.5t-53 40t-35 56t-12.5 66.5q0 90 27.5 169t80 139.5t127 95t168.5 34.5q141 0 250 -78.5t181.5 -198.5t109.5 -260t37 -261q0 -143 -42 -291t-124 -266.5t-205 -193.5 t-286 -75q-168 0 -293 70t-207 184.5t-123 260t-41 294.5zM489 1866q0 16 13.5 28.5t29.5 12.5q18 0 31 -15q25 -27 47.5 -53.5t51.5 -50.5q31 -27 63.5 -50.5t65.5 -47.5q18 -15 18 -33q0 -16 -12.5 -29.5t-28.5 -13.5t-62.5 32.5t-94.5 75.5t-85 85t-37 59z" />
<glyph unicode="&#xd3;" horiz-adv-x="1349" d="M-41 782q0 115 19.5 223.5t64.5 206t116.5 179.5t174.5 141q10 6 22 6q16 0 27.5 -14.5t11.5 -30.5q0 -12 -5 -19.5t-15 -13.5q-29 -20 -57.5 -39.5t-55.5 -42.5q-61 -55 -102 -125.5t-67.5 -148.5t-38 -161t-11.5 -161q0 -131 35 -262t105.5 -233.5t180 -167 t259.5 -64.5q145 0 251.5 70t178 177.5t106.5 239.5t35 257q0 68 -13.5 147.5t-41 158.5t-68.5 152.5t-95 131t-123 91t-151 33.5q-76 0 -136 -28.5t-100 -76.5t-61.5 -112.5t-21.5 -136.5q0 -35 23.5 -65.5t60.5 -30.5q25 0 40 16.5t24.5 40t13.5 49t4 43.5t13 29.5 t30 11.5q16 0 28.5 -11t12.5 -30q0 -37 -10.5 -76.5t-30 -74.5t-51 -57.5t-74.5 -22.5q-37 0 -67.5 15.5t-53 40t-35 56t-12.5 66.5q0 90 27.5 169t80 139.5t127 95t168.5 34.5q141 0 250 -78.5t181.5 -198.5t109.5 -260t37 -261q0 -143 -42 -291t-124 -266.5t-205 -193.5 t-286 -75q-168 0 -293 70t-207 184.5t-123 260t-41 294.5zM487 1657q0 18 19 33q47 37 92 70.5t86 76.5q14 16 35.5 43t44.5 27q16 0 29.5 -12.5t13.5 -28.5q0 -10 -17.5 -34t-44 -51.5t-59.5 -57t-63.5 -54t-55 -40t-37.5 -15.5q-16 0 -29.5 13t-13.5 30z" />
<glyph unicode="&#xd4;" horiz-adv-x="1349" d="M-41 782q0 115 19.5 223.5t64.5 206t116.5 179.5t174.5 141q10 6 22 6q16 0 27.5 -14.5t11.5 -30.5q0 -12 -5 -19.5t-15 -13.5q-29 -20 -57.5 -39.5t-55.5 -42.5q-61 -55 -102 -125.5t-67.5 -148.5t-38 -161t-11.5 -161q0 -131 35 -262t105.5 -233.5t180 -167 t259.5 -64.5q145 0 251.5 70t178 177.5t106.5 239.5t35 257q0 68 -13.5 147.5t-41 158.5t-68.5 152.5t-95 131t-123 91t-151 33.5q-76 0 -136 -28.5t-100 -76.5t-61.5 -112.5t-21.5 -136.5q0 -35 23.5 -65.5t60.5 -30.5q25 0 40 16.5t24.5 40t13.5 49t4 43.5t13 29.5 t30 11.5q16 0 28.5 -11t12.5 -30q0 -37 -10.5 -76.5t-30 -74.5t-51 -57.5t-74.5 -22.5q-37 0 -67.5 15.5t-53 40t-35 56t-12.5 66.5q0 90 27.5 169t80 139.5t127 95t168.5 34.5q141 0 250 -78.5t181.5 -198.5t109.5 -260t37 -261q0 -143 -42 -291t-124 -266.5t-205 -193.5 t-286 -75q-168 0 -293 70t-207 184.5t-123 260t-41 294.5zM373 1669q0 20 23.5 44t37.5 36q25 23 46.5 48.5t41.5 53.5q12 16 35 43t45 27q10 0 27 -12q27 -25 45 -54.5t41 -56.5q23 -29 50.5 -52.5t49.5 -51.5q10 -11 10 -25q0 -16 -12 -28.5t-29 -12.5q-14 0 -42.5 30 t-57.5 64.5t-52.5 65.5t-29.5 33q-6 -12 -32.5 -44t-57.5 -65t-58.5 -58.5t-37.5 -25.5q-16 0 -29.5 12.5t-13.5 28.5z" />
<glyph unicode="&#xd5;" horiz-adv-x="1349" d="M-41 782q0 115 19.5 223.5t64.5 206t116.5 179.5t174.5 141q10 6 22 6q16 0 27.5 -14.5t11.5 -30.5q0 -12 -5 -19.5t-15 -13.5q-29 -20 -57.5 -39.5t-55.5 -42.5q-61 -55 -102 -125.5t-67.5 -148.5t-38 -161t-11.5 -161q0 -131 35 -262t105.5 -233.5t180 -167 t259.5 -64.5q145 0 251.5 70t178 177.5t106.5 239.5t35 257q0 68 -13.5 147.5t-41 158.5t-68.5 152.5t-95 131t-123 91t-151 33.5q-76 0 -136 -28.5t-100 -76.5t-61.5 -112.5t-21.5 -136.5q0 -35 23.5 -65.5t60.5 -30.5q25 0 40 16.5t24.5 40t13.5 49t4 43.5t13 29.5 t30 11.5q16 0 28.5 -11t12.5 -30q0 -37 -10.5 -76.5t-30 -74.5t-51 -57.5t-74.5 -22.5q-37 0 -67.5 15.5t-53 40t-35 56t-12.5 66.5q0 90 27.5 169t80 139.5t127 95t168.5 34.5q141 0 250 -78.5t181.5 -198.5t109.5 -260t37 -261q0 -143 -42 -291t-124 -266.5t-205 -193.5 t-286 -75q-168 0 -293 70t-207 184.5t-123 260t-41 294.5zM358 1753q0 16 21.5 42t50.5 49.5t57.5 41t44.5 17.5q43 0 71 -24t49.5 -52.5t43 -53t49.5 -26.5q10 6 29 21.5t39.5 33t38.5 29.5t25 12q16 0 28.5 -12.5t12.5 -28.5q0 -14 -22 -37.5t-49.5 -45t-55 -38 t-41.5 -16.5q-47 0 -80 24.5t-56.5 53.5t-42 53.5t-39.5 24.5q-12 0 -28.5 -17.5t-33.5 -38t-35.5 -38t-33.5 -17.5q-16 0 -29.5 13.5t-13.5 29.5z" />
<glyph unicode="&#xd6;" horiz-adv-x="1349" d="M-41 782q0 115 19.5 223.5t64.5 206t116.5 179.5t174.5 141q10 6 22 6q16 0 27.5 -14.5t11.5 -30.5q0 -12 -5 -19.5t-15 -13.5q-29 -20 -57.5 -39.5t-55.5 -42.5q-61 -55 -102 -125.5t-67.5 -148.5t-38 -161t-11.5 -161q0 -131 35 -262t105.5 -233.5t180 -167 t259.5 -64.5q145 0 251.5 70t178 177.5t106.5 239.5t35 257q0 68 -13.5 147.5t-41 158.5t-68.5 152.5t-95 131t-123 91t-151 33.5q-76 0 -136 -28.5t-100 -76.5t-61.5 -112.5t-21.5 -136.5q0 -35 23.5 -65.5t60.5 -30.5q25 0 40 16.5t24.5 40t13.5 49t4 43.5t13 29.5 t30 11.5q16 0 28.5 -11t12.5 -30q0 -37 -10.5 -76.5t-30 -74.5t-51 -57.5t-74.5 -22.5q-37 0 -67.5 15.5t-53 40t-35 56t-12.5 66.5q0 90 27.5 169t80 139.5t127 95t168.5 34.5q141 0 250 -78.5t181.5 -198.5t109.5 -260t37 -261q0 -143 -42 -291t-124 -266.5t-205 -193.5 t-286 -75q-168 0 -293 70t-207 184.5t-123 260t-41 294.5zM367 1731q0 37 28.5 63.5t65.5 26.5t63.5 -26.5t26.5 -63.5t-26.5 -65t-63.5 -28t-65.5 28t-28.5 65zM598 1731q0 37 27.5 63.5t64.5 26.5t63.5 -26.5t26.5 -63.5t-26.5 -65t-63.5 -28t-64.5 28t-27.5 65z" />
<glyph unicode="&#xd7;" horiz-adv-x="1533" d="M446 453q0 16 11 26l250 238l-250 239q-10 10 -11 27q0 16 12.5 28.5t28.5 12.5t29 -12l250 -238l252 238q12 12 29 12q16 0 29.5 -12.5t13.5 -28.5q0 -12 -15 -27l-248 -239l248 -238q15 -14 15 -26q0 -16 -13.5 -28.5t-29.5 -12.5t-29 12l-252 238l-250 -238 q-12 -12 -29 -12q-16 0 -28.5 12t-12.5 29z" />
<glyph unicode="&#xd8;" horiz-adv-x="958" d="M66 528v521q0 90 25.5 188t76.5 179t129 134.5t182 53.5q68 0 129.5 -26t110.5 -73q6 18 21.5 49t39.5 31q16 0 30.5 -10t14.5 -29q0 -6 -6 -22.5t-13 -35t-14.5 -34.5t-11.5 -24q55 -84 85 -183.5t30 -197.5v-521q0 -90 -25.5 -188t-78 -179t-130 -134.5t-182.5 -53.5 q-68 0 -129 26t-110 73l-9.5 -28.5t-12.5 -32t-18.5 -27t-27.5 -11.5t-28.5 12.5t-12.5 28.5q0 6 6 24.5t14.5 39t16.5 40t12 27.5q-57 84 -85.5 183.5t-28.5 199.5zM150 528q0 -152 67 -284l467 1173q-39 47 -91 76t-114 29q-86 0 -147.5 -47.5t-102.5 -118t-60 -153.5 t-19 -154v-521zM274 158q39 -47 92.5 -75t112.5 -28q84 0 146.5 47.5t103.5 119t61.5 154.5t20.5 152v521q0 147 -70 282z" />
<glyph unicode="&#xd9;" horiz-adv-x="1902" d="M-41 1200q0 68 21.5 140.5t61.5 133t99.5 99.5t134.5 39q63 0 108.5 -32t74 -80t42 -106.5t13.5 -111.5v-846q0 -68 21.5 -135.5t62.5 -121.5t99.5 -89t131.5 -35q74 0 132.5 31t99.5 81t62.5 114.5t21.5 132.5v252v909q0 18 13 29.5t30 11.5q16 0 28.5 -11.5t12.5 -29.5 v-909v-330q0 -53 19.5 -104.5t55 -90.5t84 -62.5t103.5 -23.5q57 0 105.5 23.5t83 61.5t54 89.5t19.5 106.5q0 39 -25.5 72.5t-66.5 33.5q-29 0 -39 -14t-14 -30.5t-11.5 -31t-31.5 -14.5q-16 0 -29.5 11.5t-13.5 29.5q0 57 42 94t97 37q39 0 70.5 -15t55 -42t37 -60.5 t13.5 -70.5q0 -74 -26.5 -139.5t-72.5 -114.5t-109.5 -79t-137.5 -30q-106 0 -191.5 60.5t-125.5 159.5q-51 -102 -139.5 -161t-205.5 -59q-92 0 -165.5 41t-126 106.5t-80 148.5t-27.5 167v846q0 35 -8 77t-25.5 81t-47.5 64.5t-73 25.5q-57 0 -100 -34t-72.5 -84 t-45 -107.5t-15.5 -104.5q0 -33 6 -79t23.5 -89t45 -72.5t70.5 -29.5q35 0 57.5 20.5t37 50t19.5 63.5t5 62q0 18 12.5 29.5t28.5 11.5t29.5 -11t13.5 -30q0 -47 -11 -96t-36 -90t-63.5 -66.5t-92.5 -25.5q-63 0 -107 36t-71.5 88t-39 114.5t-11.5 113.5zM625 1866 q0 16 14 28.5t31 12.5q18 0 30 -15q25 -27 46.5 -54.5t50.5 -49.5q31 -27 63.5 -50.5t65.5 -47.5q18 -15 18 -33q0 -16 -12 -29.5t-29 -13.5q-16 0 -62 32.5t-94.5 75.5t-85 85t-36.5 59z" />
<glyph unicode="&#xda;" horiz-adv-x="1902" d="M-41 1200q0 68 21.5 140.5t61.5 133t99.5 99.5t134.5 39q63 0 108.5 -32t74 -80t42 -106.5t13.5 -111.5v-846q0 -68 21.5 -135.5t62.5 -121.5t99.5 -89t131.5 -35q74 0 132.5 31t99.5 81t62.5 114.5t21.5 132.5v252v909q0 18 13 29.5t30 11.5q16 0 28.5 -11.5t12.5 -29.5 v-909v-330q0 -53 19.5 -104.5t55 -90.5t84 -62.5t103.5 -23.5q57 0 105.5 23.5t83 61.5t54 89.5t19.5 106.5q0 39 -25.5 72.5t-66.5 33.5q-29 0 -39 -14t-14 -30.5t-11.5 -31t-31.5 -14.5q-16 0 -29.5 11.5t-13.5 29.5q0 57 42 94t97 37q39 0 70.5 -15t55 -42t37 -60.5 t13.5 -70.5q0 -74 -26.5 -139.5t-72.5 -114.5t-109.5 -79t-137.5 -30q-106 0 -191.5 60.5t-125.5 159.5q-51 -102 -139.5 -161t-205.5 -59q-92 0 -165.5 41t-126 106.5t-80 148.5t-27.5 167v846q0 35 -8 77t-25.5 81t-47.5 64.5t-73 25.5q-57 0 -100 -34t-72.5 -84 t-45 -107.5t-15.5 -104.5q0 -33 6 -79t23.5 -89t45 -72.5t70.5 -29.5q35 0 57.5 20.5t37 50t19.5 63.5t5 62q0 18 12.5 29.5t28.5 11.5t29.5 -11t13.5 -30q0 -47 -11 -96t-36 -90t-63.5 -66.5t-92.5 -25.5q-63 0 -107 36t-71.5 88t-39 114.5t-11.5 113.5zM645 1657 q0 18 19 33q47 37 92 70.5t86 76.5q12 14 23.5 28.5t23.5 26.5q14 14 35 15q16 0 28.5 -12.5t12.5 -28.5q0 -10 -17.5 -34t-44 -51.5t-59.5 -57t-63.5 -54t-55.5 -40t-37 -15.5q-16 0 -29.5 13t-13.5 30z" />
<glyph unicode="&#xdb;" horiz-adv-x="1902" d="M-41 1200q0 68 21.5 140.5t61.5 133t99.5 99.5t134.5 39q63 0 108.5 -32t74 -80t42 -106.5t13.5 -111.5v-846q0 -68 21.5 -135.5t62.5 -121.5t99.5 -89t131.5 -35q74 0 132.5 31t99.5 81t62.5 114.5t21.5 132.5v252v909q0 18 13 29.5t30 11.5q16 0 28.5 -11.5t12.5 -29.5 v-909v-330q0 -53 19.5 -104.5t55 -90.5t84 -62.5t103.5 -23.5q57 0 105.5 23.5t83 61.5t54 89.5t19.5 106.5q0 39 -25.5 72.5t-66.5 33.5q-29 0 -39 -14t-14 -30.5t-11.5 -31t-31.5 -14.5q-16 0 -29.5 11.5t-13.5 29.5q0 57 42 94t97 37q39 0 70.5 -15t55 -42t37 -60.5 t13.5 -70.5q0 -74 -26.5 -139.5t-72.5 -114.5t-109.5 -79t-137.5 -30q-106 0 -191.5 60.5t-125.5 159.5q-51 -102 -139.5 -161t-205.5 -59q-92 0 -165.5 41t-126 106.5t-80 148.5t-27.5 167v846q0 35 -8 77t-25.5 81t-47.5 64.5t-73 25.5q-57 0 -100 -34t-72.5 -84 t-45 -107.5t-15.5 -104.5q0 -33 6 -79t23.5 -89t45 -72.5t70.5 -29.5q35 0 57.5 20.5t37 50t19.5 63.5t5 62q0 18 12.5 29.5t28.5 11.5t29.5 -11t13.5 -30q0 -47 -11 -96t-36 -90t-63.5 -66.5t-92.5 -25.5q-63 0 -107 36t-71.5 88t-39 114.5t-11.5 113.5zM559 1669 q0 20 23.5 44t38.5 36q25 23 46 48.5t42 53.5q12 16 34.5 43t44.5 27q10 0 27 -12q27 -25 45.5 -54.5t40.5 -56.5q23 -29 50.5 -52.5t49.5 -51.5q11 -11 11 -25q0 -16 -12.5 -28.5t-28.5 -12.5q-14 0 -43 30t-57.5 64.5t-52 65.5t-30.5 33q-6 -12 -32.5 -44t-57 -65 t-58.5 -58.5t-38 -25.5q-16 0 -29.5 12.5t-13.5 28.5z" />
<glyph unicode="&#xdc;" horiz-adv-x="1902" d="M-41 1200q0 68 21.5 140.5t61.5 133t99.5 99.5t134.5 39q63 0 108.5 -32t74 -80t42 -106.5t13.5 -111.5v-846q0 -68 21.5 -135.5t62.5 -121.5t99.5 -89t131.5 -35q74 0 132.5 31t99.5 81t62.5 114.5t21.5 132.5v252v909q0 18 13 29.5t30 11.5q16 0 28.5 -11.5t12.5 -29.5 v-909v-330q0 -53 19.5 -104.5t55 -90.5t84 -62.5t103.5 -23.5q57 0 105.5 23.5t83 61.5t54 89.5t19.5 106.5q0 39 -25.5 72.5t-66.5 33.5q-29 0 -39 -14t-14 -30.5t-11.5 -31t-31.5 -14.5q-16 0 -29.5 11.5t-13.5 29.5q0 57 42 94t97 37q39 0 70.5 -15t55 -42t37 -60.5 t13.5 -70.5q0 -74 -26.5 -139.5t-72.5 -114.5t-109.5 -79t-137.5 -30q-106 0 -191.5 60.5t-125.5 159.5q-51 -102 -139.5 -161t-205.5 -59q-92 0 -165.5 41t-126 106.5t-80 148.5t-27.5 167v846q0 35 -8 77t-25.5 81t-47.5 64.5t-73 25.5q-57 0 -100 -34t-72.5 -84 t-45 -107.5t-15.5 -104.5q0 -33 6 -79t23.5 -89t45 -72.5t70.5 -29.5q35 0 57.5 20.5t37 50t19.5 63.5t5 62q0 18 12.5 29.5t28.5 11.5t29.5 -11t13.5 -30q0 -47 -11 -96t-36 -90t-63.5 -66.5t-92.5 -25.5q-63 0 -107 36t-71.5 88t-39 114.5t-11.5 113.5zM623 1731 q0 37 28.5 63.5t65.5 26.5t63.5 -26.5t26.5 -63.5t-26.5 -65t-63.5 -28t-65.5 28t-28.5 65zM852 1731q0 37 27.5 63.5t64.5 26.5t63.5 -26.5t26.5 -63.5t-26.5 -65t-63.5 -28t-64.5 28t-27.5 65z" />
<glyph unicode="&#xe0;" horiz-adv-x="974" d="M-41 322q0 70 25.5 133t71.5 110t107.5 76t133.5 29q74 0 140.5 -31t113.5 -88q0 14 -1 33.5t1 38t12 31t31 12.5q16 0 28.5 -12.5t12.5 -28.5v-424q0 -18 1 -44t7 -48.5t20.5 -38t41.5 -15.5q31 0 64.5 30t62 71t52 84t36.5 67q8 16 20 35.5t35 19.5q16 0 29.5 -11 t13.5 -27q0 -8 -2 -13q-16 -39 -49 -97t-75 -111.5t-90 -91.5t-97 -38q-63 0 -98.5 35t-47.5 94q-47 -61 -115.5 -95t-146.5 -34q-72 0 -133.5 29t-107.5 76t-71.5 110.5t-25.5 133.5zM43 322q0 -53 19.5 -101.5t53.5 -85.5t81 -58.5t100 -21.5t100 21.5t81 58.5t53.5 85.5 t19.5 101.5t-19.5 101t-53.5 85t-81 59.5t-100 22.5q-55 0 -101 -22.5t-80 -59.5t-53.5 -85t-19.5 -101zM180 1026q0 16 14.5 28.5t30.5 12.5q18 0 31 -14q25 -27 46.5 -54.5t49.5 -50.5q31 -27 65 -49t64 -47q19 -15 19 -33q0 -16 -12.5 -28.5t-28.5 -12.5q-18 0 -63.5 32 t-93.5 74t-85 83t-37 59z" />
<glyph unicode="&#xe1;" horiz-adv-x="972" d="M-41 322q0 70 25.5 133t70.5 110t106.5 76t133.5 29q74 0 141.5 -31t114.5 -88q0 14 -2 33.5t1 38t12 31t30 12.5q16 0 29.5 -12.5t13.5 -28.5v-424v-45q0 -25 6 -47.5t20.5 -38t40.5 -15.5q31 0 65 30t63.5 71t53 84t36.5 67q8 16 19 35.5t34 19.5q16 0 30.5 -11 t14.5 -27q0 -4 -4 -13q-16 -39 -49 -97t-75 -111.5t-90 -91.5t-98 -38q-63 0 -98 35t-47 94q-47 -61 -115.5 -95t-146.5 -34q-72 0 -133.5 29t-106.5 76t-70.5 110.5t-25.5 133.5zM43 322q0 -53 19.5 -101.5t53.5 -85.5t80 -58.5t99 -21.5t100 21.5t82 58.5t54.5 85.5 t19.5 101.5t-19.5 101t-54.5 85t-82 59.5t-100 22.5q-55 0 -101.5 -22.5t-80 -59.5t-52 -85t-18.5 -101zM203 825q0 20 14 33q31 27 64.5 48.5t64.5 47.5q29 23 51.5 49.5t46.5 53.5q12 16 33 16q16 0 29.5 -12.5t13.5 -28.5t-37 -57t-84 -83t-92 -75t-63 -33 q-16 0 -28.5 12.5t-12.5 28.5z" />
<glyph unicode="&#xe2;" horiz-adv-x="974" d="M-41 322q0 70 25.5 133t71.5 111t107.5 77t133.5 29q74 0 140.5 -32t113.5 -89q0 14 -1 33.5t1 38t12 31t31 12.5q16 0 28.5 -12.5t12.5 -28.5v-424q0 -18 1 -44t7 -48.5t20.5 -38t41.5 -15.5q31 0 64.5 30t62 71t52 84t36.5 67q8 16 20 35.5t35 19.5q16 0 29.5 -11 t13.5 -27q0 -8 -2 -13q-16 -39 -49 -97t-75 -111.5t-90 -91.5t-97 -38q-63 0 -98.5 36t-47.5 95q-47 -61 -115.5 -96t-146.5 -35q-72 0 -133.5 29t-107.5 76t-71.5 110.5t-25.5 133.5zM43 322q0 -53 19.5 -101.5t53.5 -85.5t80 -58.5t101 -21.5q53 0 100 21.5t81 58.5 t53.5 85.5t19.5 101.5t-19.5 101t-53.5 85t-80 59.5t-101 22.5t-101 -22.5t-80 -59.5t-53.5 -85t-19.5 -101zM78 852q0 20 23.5 43t37.5 35q49 45 88 100q12 16 35 43t45 27q10 0 27 -13q27 -23 45 -52t41 -56q23 -29 50.5 -52.5t49.5 -52.5q10 -10 10 -22q0 -16 -12 -28.5 t-29 -12.5q-14 0 -42.5 28.5t-57.5 63.5t-52.5 64.5t-29.5 31.5q-6 -12 -32.5 -42.5t-57.5 -63.5t-58.5 -57.5t-37.5 -24.5q-16 0 -29.5 12.5t-13.5 28.5z" />
<glyph unicode="&#xe3;" horiz-adv-x="974" d="M-41 322q0 70 25.5 133t71.5 110t107.5 76t133.5 29q74 0 140.5 -32t113.5 -87q0 14 -1 33.5t1 37t12 30t31 12.5q16 0 28.5 -12.5t12.5 -28.5v-422q0 -18 1 -44t7 -48.5t20.5 -38t41.5 -15.5q31 0 64.5 30t62 71t52 84t36.5 67q8 16 20 35.5t35 19.5q16 0 29.5 -11 t13.5 -27q0 -8 -2 -13q-16 -39 -49 -97t-75 -111.5t-91 -91.5t-96 -38q-63 0 -98.5 35t-47.5 94q-47 -59 -115.5 -94t-146.5 -35q-72 0 -133.5 29t-107.5 76t-71.5 110.5t-25.5 133.5zM43 322q0 -53 19.5 -101.5t53.5 -85.5t81 -58.5t100 -21.5t100 21.5t81 58.5t53.5 85.5 t19.5 101.5t-19.5 101t-53.5 85t-81 58.5t-100 21.5q-55 0 -101 -21.5t-80 -58.5t-53.5 -85t-19.5 -101zM57 885q0 16 21.5 41.5t50.5 49t58.5 40t45.5 16.5q43 0 71 -23.5t49.5 -52t42 -52t48.5 -25.5q10 6 29 21t39 32.5t38.5 30t24.5 12.5q16 0 28.5 -13.5t12.5 -29.5 q0 -14 -21.5 -38t-49 -45.5t-55 -37.5t-41.5 -16q-47 0 -80 24.5t-55.5 53t-41 53t-39.5 24.5q-12 0 -28.5 -16t-34.5 -36.5t-36.5 -37t-33.5 -16.5q-16 0 -29.5 12t-13.5 29z" />
<glyph unicode="&#xe4;" horiz-adv-x="974" d="M-41 319q0 70 25.5 133.5t71.5 111.5t107.5 77t133.5 29q74 0 140.5 -33t113.5 -88q0 14 -1 33.5t1 38t12 31t31 12.5q16 0 28.5 -12.5t12.5 -28.5v-422q0 -18 1 -44t7 -48.5t20.5 -38t41.5 -15.5q31 0 64.5 30t62 71t52 84t36.5 67q8 16 20 34.5t35 18.5q16 0 29.5 -11 t13.5 -27q0 -6 -2 -11q-16 -39 -49 -97t-75 -111.5t-91 -91.5t-96 -38q-63 0 -98.5 35t-47.5 94q-47 -59 -115.5 -94t-146.5 -35q-72 0 -133.5 28t-107.5 76t-71.5 110.5t-25.5 131.5zM43 319q0 -53 19.5 -101t53.5 -84t81 -57.5t100 -21.5t100 21.5t81 57.5t53.5 84 t19.5 101t-19.5 101.5t-53.5 85.5t-81 59.5t-100 22.5q-55 0 -101 -22.5t-80 -59.5t-53.5 -85t-19.5 -102zM84 915q0 37 28.5 63t65.5 26t63.5 -26t26.5 -63t-26.5 -62.5t-63.5 -25.5t-65.5 26t-28.5 62zM313 915q0 37 29 63t66 26t63.5 -26t26.5 -63t-27 -62.5t-63 -25.5 q-37 0 -66 26t-29 62z" />
<glyph unicode="&#xe5;" horiz-adv-x="974" d="M-41 315q0 70 26.5 132.5t71.5 109.5t107.5 74.5t132.5 27.5q74 0 140.5 -31.5t113.5 -86.5q0 14 -1 33.5t1 37t12 29.5t31 12q16 0 28.5 -11t12.5 -28v-415q0 -18 1 -44t7 -48.5t20.5 -38t41.5 -15.5q31 0 64.5 30t62 70t52 83t36.5 67q8 16 20 34.5t35 18.5 q16 0 29.5 -11.5t13.5 -27.5q0 -8 -2 -12q-16 -39 -49 -96t-75 -109.5t-91 -89.5t-96 -37q-61 0 -97.5 34t-48.5 93q-47 -59 -115.5 -93t-146.5 -34q-70 0 -132.5 28t-107.5 74t-71.5 108.5t-26.5 131.5zM43 315q0 -51 19.5 -99t53.5 -84t81 -57.5t100 -21.5t100 21.5 t81 57.5t53.5 83t19.5 100t-19.5 100.5t-53.5 84.5t-81 58.5t-100 21.5t-100 -21.5t-81 -58.5t-53.5 -84t-19.5 -101zM197 961q0 55 42 89.5t95 34.5t94 -34.5t41 -89.5t-41 -91t-94 -36t-95 35.5t-42 91.5zM264 961q0 -29 20.5 -47.5t49.5 -18.5t49 18.5t20 47.5t-21.5 46 t-47.5 17q-27 0 -48.5 -17.5t-21.5 -45.5z" />
<glyph unicode="&#xe6;" horiz-adv-x="1024" />
<glyph unicode="&#xe7;" horiz-adv-x="700" d="M-16 309q0 70 25.5 133.5t70.5 111.5t106.5 76.5t132.5 28.5q66 0 131.5 -25.5t108.5 -72.5q12 -16 12 -26q0 -16 -14 -29.5t-31 -13.5q-6 0 -26.5 13t-49 29.5t-62.5 30t-69 13.5q-55 0 -101 -23t-80 -59.5t-52 -85t-18 -101.5t19 -101t53 -84t80 -57.5t99 -21.5 q102 0 172 56.5t119 140.5q12 23 23.5 45t28.5 43q8 10 15 15t19 5q16 0 30.5 -11.5t14.5 -27.5q0 -4 -2 -9t-4 -9q-27 -55 -59.5 -108.5t-74.5 -96.5t-93 -74.5t-117 -44.5q0 -51 -6 -100q29 -2 60.5 -14.5t58 -34t44 -50t17.5 -59.5q0 -33 -17.5 -56.5t-43 -39.5 t-56 -24.5t-59.5 -8.5q-57 0 -108.5 18.5t-79.5 73.5q-2 4 -2 15q0 16 13 28.5t30 12.5q12 0 22 -10.5t23.5 -22.5t37 -22.5t64.5 -10.5q10 0 25.5 2t31 8.5t25.5 15.5t10 21t-11 26.5t-27.5 25t-34 17.5t-29.5 7q-14 0 -28.5 -8t-31.5 -8q-31 0 -30 32q0 12 2 19 q6 35 10 70.5t6 70.5q-70 2 -129 31t-102 76t-67.5 108.5t-24.5 130.5z" />
<glyph unicode="&#xe8;" horiz-adv-x="737" d="M-41 322q0 74 26.5 137t72.5 110t108.5 74t136.5 27q41 0 88 -13.5t87 -39t66.5 -62.5t26.5 -86q0 -57 -25.5 -101t-65.5 -74t-91 -45.5t-102 -15.5q-68 0 -124.5 14.5t-117.5 43.5q6 -47 27.5 -90t55.5 -75t77 -51.5t92 -19.5q113 0 204 48.5t150 146.5q6 10 15.5 28.5 t20.5 37t24.5 32.5t27.5 14q16 0 29.5 -11t13.5 -27q0 -8 -2 -13q-63 -156 -187 -247t-296 -91q-70 0 -132.5 29t-107.5 76t-71.5 110.5t-26.5 133.5zM49 381q61 -33 114.5 -49.5t123.5 -16.5q35 0 69.5 9.5t64.5 29t48 48t18 67.5q0 29 -20.5 51.5t-49 37.5t-60 23.5 t-54.5 8.5q-94 0 -163.5 -58.5t-90.5 -150.5zM180 1026q0 16 14.5 28.5t30.5 12.5q18 0 31 -14q25 -27 46.5 -54.5t49.5 -50.5q31 -27 65 -49t64 -47q19 -15 19 -33q0 -16 -12.5 -28.5t-28.5 -12.5q-18 0 -63.5 32t-93.5 74t-85 83t-37 59z" />
<glyph unicode="&#xe9;" horiz-adv-x="737" d="M-41 322q0 74 26.5 137t72.5 110t108.5 74t136.5 27q41 0 88 -13.5t87 -39t66.5 -62.5t26.5 -86q0 -57 -25.5 -101t-65.5 -74t-91 -45.5t-102 -15.5q-68 0 -124.5 14.5t-117.5 43.5q6 -47 26.5 -90t54.5 -75t78 -51.5t93 -19.5q113 0 204 48.5t150 146.5q6 10 15.5 28.5 t20.5 37t24.5 32.5t27.5 14q16 0 29.5 -11t13.5 -27q0 -8 -2 -13q-63 -156 -187 -247t-296 -91q-70 0 -132.5 29t-107.5 76t-71.5 110.5t-26.5 133.5zM49 381q61 -33 114.5 -49.5t123.5 -16.5q35 0 69.5 9.5t64.5 29t48 48t18 67.5q0 29 -20.5 51.5t-49 37.5t-60 23.5 t-54.5 8.5q-94 0 -163.5 -58.5t-90.5 -150.5zM168 825q0 18 18 33q31 25 65 47.5t64 48.5q29 23 51.5 49.5t47.5 53.5q12 16 32 16q16 0 28.5 -12.5t12.5 -28.5t-36.5 -57t-84 -83t-92.5 -75t-63 -33q-16 0 -29.5 12.5t-13.5 28.5z" />
<glyph unicode="&#xea;" horiz-adv-x="737" d="M-41 322q0 74 26.5 137t72.5 110t108.5 75t136.5 28q41 0 88 -13.5t87 -40t66.5 -63.5t26.5 -86q0 -57 -25.5 -100t-65.5 -73t-91 -45t-102 -15q-68 0 -124.5 13t-117.5 42q6 -47 26.5 -90t54.5 -75t78 -51.5t93 -19.5q113 0 204 48.5t150 146.5q6 10 15.5 28.5t20.5 37 t24.5 32.5t27.5 14q16 0 29.5 -11t13.5 -27q0 -8 -2 -13q-63 -156 -187 -247t-296 -91q-70 0 -132.5 29t-107.5 76t-71.5 110.5t-26.5 133.5zM49 381q61 -33 114.5 -49.5t123.5 -16.5q35 0 69.5 9.5t64.5 29t48 48t18 67.5q0 29 -20.5 51.5t-49 37.5t-60 23.5t-54.5 8.5 q-94 0 -163.5 -58.5t-90.5 -150.5zM78 852q0 20 23.5 43t37.5 35q49 45 88 100q12 16 35 43t45 27q10 0 27 -13q27 -23 45 -52t41 -56q23 -29 50.5 -52.5t49.5 -52.5q10 -10 10 -22q0 -16 -12 -28.5t-29 -12.5q-14 0 -42.5 28.5t-57.5 63.5t-52.5 64.5t-29.5 31.5 q-6 -12 -32.5 -42.5t-57.5 -63.5t-58.5 -57.5t-37.5 -24.5q-16 0 -29.5 12.5t-13.5 28.5z" />
<glyph unicode="&#xeb;" horiz-adv-x="737" d="M-41 319q0 74 26.5 137.5t72.5 110.5t108.5 75t136.5 28q41 0 88 -13.5t87 -40t66.5 -64.5t26.5 -85q0 -57 -25.5 -100t-66.5 -73t-91 -45.5t-101 -15.5q-68 0 -124.5 14.5t-117.5 43.5q6 -47 27.5 -90t55.5 -75t77 -51.5t92 -19.5q113 0 204 47.5t150 145.5 q6 10 15.5 28.5t20.5 37t24.5 32.5t27.5 14q16 0 29.5 -11t13.5 -27q0 -6 -2 -11q-63 -156 -187 -247t-296 -91q-70 0 -132.5 28t-107.5 76t-71.5 110.5t-26.5 131.5zM49 381q61 -33 114.5 -49.5t123.5 -16.5q33 0 68.5 9.5t64.5 28t48 47t19 67.5q0 29 -20.5 51.5t-49 37.5 t-60 23.5t-54.5 8.5q-94 0 -163.5 -57.5t-90.5 -149.5zM72 915q0 37 28.5 63t65.5 26t63.5 -26t26.5 -63t-26.5 -62.5t-63.5 -25.5t-65.5 26t-28.5 62zM303 915q0 37 27.5 63t64.5 26t63.5 -26t26.5 -63t-26.5 -62.5t-63.5 -25.5t-64.5 26t-27.5 62z" />
<glyph unicode="&#xee;" horiz-adv-x="509" d="M-123 852q0 20 23.5 43t38.5 35q49 45 88 100q12 16 33.5 43t43.5 27q10 0 27 -13q27 -23 46.5 -52t41.5 -56q23 -29 49.5 -52.5t48.5 -52.5q13 -12 13 -22q0 -16 -13.5 -28.5t-29.5 -12.5q-14 0 -43 28.5t-57.5 63.5t-52 64.5t-30.5 31.5q-6 -12 -32.5 -42.5t-57 -63.5 t-58.5 -57.5t-38 -24.5q-16 0 -28.5 12.5t-12.5 28.5zM-41 322q0 8 10.5 35.5t22.5 60.5t24.5 63.5t16.5 44.5q4 10 8 29.5t9 39t11.5 37t12.5 23.5q14 14 28 15q18 0 30.5 -14.5t12.5 -30.5l-2 -422q0 -18 1 -43t8.5 -48.5t21.5 -40t39 -16.5q37 0 70.5 20.5t61.5 51.5 t50.5 66.5t36.5 66.5q10 20 18.5 42t22.5 40q14 20 35 20q16 0 30.5 -11t14.5 -27q0 -6 -4 -19q-18 -49 -51 -107.5t-76 -108.5t-96.5 -83t-112.5 -33q-66 0 -97.5 43t-44 103.5t-11.5 124t1 106.5q-6 -16 -23.5 -42.5t-37.5 -26.5q-16 0 -28.5 12t-12.5 29z" />
<glyph unicode="&#xef;" horiz-adv-x="542" d="M-131 907q0 37 28.5 62.5t65.5 25.5t63.5 -25.5t26.5 -62.5t-26.5 -62.5t-63.5 -25.5t-65.5 25.5t-28.5 62.5zM-41 322q0 8 10.5 35.5t22.5 60.5t24.5 63.5t16.5 44.5q4 10 9 29.5t9 39t10.5 37t12.5 23.5q14 14 28 15q18 0 30.5 -14.5t12.5 -30.5l-2 -422q0 -18 1 -43 t8.5 -48.5t21.5 -40t39 -16.5q37 0 70.5 20.5t61.5 51.5t50.5 66.5t36.5 66.5q10 20 18.5 42t22.5 40q14 20 35 20q16 0 30.5 -11t14.5 -27q0 -2 -4 -19q-18 -49 -51 -107.5t-76 -108.5t-96.5 -83t-112.5 -33q-66 0 -97.5 43t-44 103.5t-11.5 124t1 106.5 q-6 -16 -23.5 -42.5t-37.5 -26.5q-16 0 -28.5 12t-12.5 29zM100 907q0 37 28 62.5t65 25.5t63.5 -25.5t26.5 -62.5t-27 -62.5t-63 -25.5q-37 0 -65 25.5t-28 62.5z" />
<glyph unicode="&#xf1;" horiz-adv-x="1042" d="M-41 322q0 10 10.5 39.5t23.5 63.5t26.5 64.5t19.5 42.5q12 23 26.5 46.5t34 43t43 32t52.5 12.5q37 0 63.5 -20.5t42.5 -53.5q29 35 70 54.5t88 19.5q45 0 85 -13.5t70.5 -38t48 -61.5t17.5 -84v-238q0 -27 2 -58.5t12.5 -57t30.5 -43t57 -17.5q23 0 53.5 33t61.5 76 t55.5 85t34.5 62q10 16 21.5 33.5t33.5 17.5q16 0 29.5 -11t13.5 -27q0 -6 -4 -19q-12 -33 -46 -89t-78 -109.5t-91 -93.5t-84 -40q-57 0 -93 22.5t-56.5 59.5t-28.5 83t-8 93v238q0 59 -42 87t-95 28q-29 0 -52.5 -13.5t-41 -34t-27.5 -47t-10 -53.5v-422 q0 -16 -13.5 -28.5t-29.5 -12.5t-28.5 12.5t-12.5 28.5v459q0 12 -1 30.5t-6.5 36t-15.5 31t-26 13.5q-39 0 -62.5 -47.5t-42 -104.5t-39 -104t-51.5 -47q-16 0 -28.5 12t-12.5 29zM98 889q0 16 21.5 41.5t50.5 49.5t57.5 40t44.5 16q43 0 71 -23.5t49.5 -52t42 -53 t48.5 -26.5q10 6 28.5 22.5t39 32.5t39 29.5t24.5 13.5q16 0 30.5 -13.5t14.5 -29.5q0 -14 -21.5 -38t-50 -45.5t-57 -37.5t-43.5 -16q-47 0 -79.5 24.5t-55 53t-41 53t-39.5 24.5q-12 0 -28.5 -16t-33.5 -36.5t-35.5 -37t-33.5 -16.5q-16 0 -29.5 12t-13.5 29z" />
<glyph unicode="&#xf2;" horiz-adv-x="819" d="M-41 322q0 70 25.5 133t71.5 110t107.5 76t133.5 29t133.5 -29t107.5 -76t71.5 -110.5t25.5 -132.5q0 -14 -1 -26.5t-3 -27.5q20 -4 35 -4q41 0 63.5 15.5t36.5 34t25.5 33.5t29.5 15q16 0 28.5 -11t12.5 -27q0 -6 -4 -19q-27 -57 -79 -90t-113 -33q-27 0 -56 6 q-39 -98 -124 -156.5t-189 -58.5q-72 0 -133.5 29t-107.5 76t-71.5 110.5t-25.5 133.5zM43 322q0 -53 19.5 -101.5t53.5 -85.5t81 -58.5t100 -21.5q80 0 144.5 47t93.5 121q-41 31 -67 77t-26 99q0 29 6.5 58.5t26.5 52.5q-35 37 -81 58.5t-97 21.5q-55 0 -101 -22.5 t-80 -59.5t-53.5 -85t-19.5 -101zM180 1026q0 16 14.5 28.5t30.5 12.5q18 0 31 -14q25 -27 46.5 -54.5t49.5 -50.5q31 -27 65 -49t64 -47q19 -15 19 -33q0 -16 -12.5 -28.5t-28.5 -12.5q-18 0 -63.5 32t-93.5 74t-85 83t-37 59zM526 399q0 -40 25 -75q0 23 -6 54.5t-17 53.5 q-2 -8 -2 -16v-17z" />
<glyph unicode="&#xf3;" horiz-adv-x="819" d="M-41 322q0 70 25.5 133t71.5 110t107.5 76t133.5 29t133.5 -29t107.5 -76t71.5 -110.5t25.5 -132.5q0 -14 -1 -26.5t-3 -27.5q20 -4 35 -4q41 0 63.5 15.5t36.5 34t25.5 33.5t29.5 15q16 0 28.5 -11t12.5 -27q0 -6 -4 -19q-27 -57 -79 -90t-113 -33q-27 0 -56 6 q-39 -98 -124 -156.5t-189 -58.5q-72 0 -133.5 29t-107.5 76t-71.5 110.5t-25.5 133.5zM43 322q0 -53 19.5 -101.5t53.5 -85.5t81 -58.5t100 -21.5q80 0 144.5 47t93.5 121q-41 31 -67 77t-26 99q0 29 6.5 58.5t26.5 52.5q-35 37 -81 58.5t-97 21.5q-55 0 -101 -22.5 t-80 -59.5t-53.5 -85t-19.5 -101zM158 825q0 18 18 33q47 37 92 70t86 76q12 14 23.5 26t23.5 27q12 16 33 16q16 0 29.5 -12.5t13.5 -28.5t-37 -57t-84 -83t-92 -75t-63 -33q-16 0 -29.5 12.5t-13.5 28.5zM526 399q0 -40 25 -75q0 23 -6 54.5t-17 53.5q-2 -8 -2 -16v-17z " />
<glyph unicode="&#xf4;" horiz-adv-x="819" d="M-41 322q0 70 25.5 133t71.5 111t107.5 77t133.5 29t133.5 -29t107.5 -77t71.5 -111.5t25.5 -132.5q0 -14 -1 -26.5t-3 -27.5q20 -4 35 -4q41 0 63.5 15.5t36.5 34t25.5 33.5t29.5 15q16 0 28.5 -11t12.5 -27q0 -6 -4 -19q-27 -57 -79 -90t-113 -33q-27 0 -56 6 q-39 -98 -124 -156.5t-189 -58.5q-72 0 -133.5 29t-107.5 76t-71.5 110.5t-25.5 133.5zM43 322q0 -53 19.5 -101.5t53.5 -85.5t80 -58.5t101 -21.5q80 0 144.5 47t93.5 121q-41 31 -67 77t-26 99q0 29 6.5 59.5t26.5 53.5q-74 78 -178 78q-55 0 -101 -22.5t-80 -59.5 t-53.5 -85t-19.5 -101zM68 852q0 20 23.5 43t37.5 35q49 45 88 100q12 16 34.5 43t45.5 27q10 0 27 -13q27 -23 45 -52t41 -56q23 -29 50 -52.5t50 -52.5q10 -10 10 -22q0 -16 -12 -28.5t-29 -12.5q-14 0 -42.5 28.5t-57.5 63.5t-52.5 64.5t-29.5 31.5q-6 -12 -32.5 -42.5 t-57.5 -63.5t-58.5 -57.5t-37.5 -24.5q-16 0 -29.5 12.5t-13.5 28.5zM526 399q0 -40 25 -75q0 23 -6 54.5t-17 53.5q-2 -8 -2 -16v-17z" />
<glyph unicode="&#xf5;" horiz-adv-x="819" d="M-41 322q0 70 25.5 133t71.5 110t107.5 76t133.5 29t133.5 -29t107.5 -76t71.5 -110.5t25.5 -132.5q0 -14 -1 -26.5t-3 -27.5q20 -4 35 -4q41 0 63.5 15.5t36.5 34t25.5 33.5t29.5 15q16 0 28.5 -11t12.5 -27q0 -6 -4 -19q-27 -57 -79 -90t-113 -33q-27 0 -56 6 q-39 -98 -124 -156.5t-189 -58.5q-72 0 -133.5 29t-107.5 76t-71.5 110.5t-25.5 133.5zM43 322q0 -53 19.5 -101.5t53.5 -85.5t81 -58.5t100 -21.5q80 0 144.5 47t93.5 121q-41 31 -67 77t-26 99q0 29 6.5 58.5t26.5 52.5q-74 78 -178 78q-55 0 -101 -21.5t-80 -58.5 t-53.5 -85t-19.5 -101zM72 891q0 16 21.5 41.5t50 49.5t58 41t46.5 17q43 0 70.5 -23.5t49 -52t42 -53t49.5 -26.5q10 6 28.5 21.5t39 32.5t39 29.5t24.5 12.5q16 0 28.5 -12.5t12.5 -28.5q0 -14 -21.5 -37.5t-49.5 -45t-55.5 -38t-41.5 -16.5q-47 0 -80 24.5t-55.5 53 t-41 53t-38.5 24.5q-12 0 -28.5 -17t-35 -36.5t-37 -37t-32.5 -17.5q-16 0 -29.5 12t-13.5 29zM526 399q0 -40 25 -75q0 23 -6 54.5t-17 53.5q-2 -8 -2 -16v-17z" />
<glyph unicode="&#xf6;" horiz-adv-x="819" d="M-41 319q0 70 25.5 133.5t71.5 111.5t107.5 77t133.5 29t133.5 -29t107.5 -77t71.5 -111.5t25.5 -133.5q0 -14 -1 -25t-3 -26q20 -4 35 -4q41 0 63.5 15.5t36.5 33t25.5 32.5t29.5 15q16 0 28.5 -11t12.5 -27q0 -6 -4 -19q-27 -57 -79 -89t-113 -32q-27 0 -56 6 q-39 -98 -124 -156.5t-189 -58.5q-72 0 -133.5 28t-107.5 76t-71.5 110.5t-25.5 131.5zM43 319q0 -53 19.5 -101t53.5 -84t81 -57.5t100 -21.5q80 0 144.5 47t93.5 121q-41 31 -67 76t-26 98q0 29 6.5 59.5t26.5 53.5q-74 78 -178 78q-55 0 -101 -22.5t-80 -59.5t-53.5 -85 t-19.5 -102zM61 915q0 37 29 63t66 26t63.5 -26t26.5 -63t-26.5 -62.5t-63.5 -25.5t-66 26t-29 62zM293 915q0 37 27.5 63t64.5 26t63.5 -26t26.5 -63t-26.5 -62.5t-63.5 -25.5t-64.5 26t-27.5 62zM526 397q0 -38 25 -73q0 23 -6 53.5t-17 52.5q-2 -8 -2 -16v-17z" />
<glyph unicode="&#xf7;" d="M86 371q0 27 17.5 44t43.5 17h555q27 0 44.5 -17t17.5 -44t-17.5 -44.5t-44.5 -17.5h-555q-27 0 -44 17.5t-17 44.5zM334 670q0 35 28.5 61.5t63.5 26.5t62.5 -26.5t27.5 -61.5q0 -37 -25.5 -64.5t-64.5 -27.5q-37 0 -64.5 27.5t-27.5 64.5zM338 70q0 37 26.5 63.5 t63.5 26.5t63.5 -26.5t26.5 -63.5q0 -35 -27.5 -62.5t-62.5 -27.5t-62.5 27.5t-27.5 62.5z" />
<glyph unicode="&#xf9;" horiz-adv-x="968" d="M-41 315q0 10 10.5 37t23.5 58.5t25.5 62.5t16.5 45q4 12 7 30.5t8 37t11.5 35t14.5 24.5q12 12 30 12t28.5 -14t10.5 -31v-372q0 -45 19.5 -80t50.5 -58.5t70 -36t80 -12.5q47 0 80.5 24.5t56 62.5t34 83t11.5 84v305q0 16 13 28.5t30 12.5q16 0 28.5 -12t12.5 -29v-413 q0 -18 1 -44t7 -48.5t20.5 -38t40.5 -15.5q29 0 58.5 24.5t57.5 59.5t49.5 71t33.5 58q10 16 17.5 34.5t17.5 35.5q14 20 37 20q16 0 29.5 -11.5t13.5 -27.5q0 -4 -2 -9t-4 -9q-18 -39 -50 -95.5t-73 -107.5t-88 -87t-97 -36q-100 0 -135 95q-2 4 -2 16t-2 16q-4 -4 -6 -18 t-6 -19q-35 -41 -82 -65.5t-102 -24.5q-57 0 -111.5 18.5t-97.5 52.5t-69 84t-26 112v82v43q-2 -4 -3 -16.5t-3 -16.5q-10 -16 -23.5 -37t-29.5 -21t-29.5 12.5t-13.5 28.5zM180 1026q0 16 14.5 28.5t30.5 12.5q18 0 31 -14q25 -27 46.5 -54.5t49.5 -50.5q31 -27 65 -49 t64 -47q19 -15 19 -33q0 -16 -12.5 -28.5t-28.5 -12.5q-18 0 -63.5 32t-93.5 74t-85 83t-37 59z" />
<glyph unicode="&#xfa;" horiz-adv-x="968" d="M-41 315q0 10 10.5 37t23.5 58.5t25.5 62.5t16.5 45q4 12 7 30.5t8 37t11.5 35t14.5 24.5q12 12 30 12t28.5 -14t10.5 -31v-372q0 -45 19.5 -80t50.5 -58.5t70 -36t80 -12.5q47 0 80.5 24.5t56 62.5t34 83t11.5 84v305q0 16 13 28.5t30 12.5q16 0 28.5 -12t12.5 -29v-413 q0 -18 1 -44t7 -48.5t20.5 -38t40.5 -15.5q29 0 58.5 24.5t57.5 59.5t49.5 71t33.5 58q10 16 17.5 34.5t17.5 35.5q14 20 37 20q16 0 29.5 -11.5t13.5 -27.5q0 -4 -2 -9t-4 -9q-18 -39 -50 -95.5t-73 -107.5t-88 -87t-97 -36q-100 0 -135 95q-2 4 -2 16t-2 16q-4 -4 -6 -18 t-6 -19q-35 -41 -82 -65.5t-102 -24.5q-57 0 -111.5 18.5t-97.5 52.5t-69 84t-26 112v82v43q-2 -4 -3 -16.5t-3 -16.5q-10 -16 -23.5 -37t-29.5 -21t-29.5 12.5t-13.5 28.5zM172 825q0 18 18 33q47 37 92.5 70t86.5 76q12 14 23 26t24 27q12 16 33 16q16 0 29.5 -12.5 t13.5 -28.5t-37 -57t-84 -83t-92.5 -75t-63.5 -33q-16 0 -29.5 12.5t-13.5 28.5z" />
<glyph unicode="&#xfb;" horiz-adv-x="968" d="M-41 315q0 10 10.5 37t23.5 58.5t25.5 62.5t16.5 45q4 12 7 30.5t8 37t11.5 35t14.5 24.5q12 12 30 12t28.5 -14t10.5 -31v-372q0 -45 19.5 -80t50.5 -58.5t70 -36t80 -12.5q47 0 80.5 24.5t56 62.5t34 83t11.5 84v305q0 16 13 28.5t30 12.5q16 0 28.5 -12t12.5 -29v-413 q0 -18 1 -44t7 -48.5t20.5 -38t40.5 -15.5q29 0 58.5 24.5t57.5 59.5t49.5 71t33.5 58q10 16 17.5 34.5t17.5 35.5q14 20 37 20q16 0 29.5 -11.5t13.5 -27.5q0 -4 -2 -9t-4 -9q-18 -39 -50 -95.5t-73 -107.5t-88 -87t-97 -36q-100 0 -135 95q-2 4 -2 16t-2 16q-4 -4 -6 -18 t-6 -19q-35 -41 -82 -65.5t-102 -24.5q-57 0 -111.5 18.5t-97.5 52.5t-69 84t-26 112v82v43q-2 -4 -3 -16.5t-3 -16.5q-10 -16 -23.5 -37t-29.5 -21t-29.5 12.5t-13.5 28.5zM111 852q0 20 23.5 43t37.5 35q49 45 88 100q12 16 34.5 43t45.5 27q10 0 27 -13q27 -23 45 -52 t41 -56q23 -29 50 -52.5t50 -52.5q10 -10 10 -22q0 -16 -12 -28.5t-29 -12.5q-14 0 -42.5 28.5t-57.5 63.5t-52.5 64.5t-29.5 31.5q-6 -12 -32.5 -42.5t-57.5 -63.5t-58.5 -57.5t-37.5 -24.5q-16 0 -29.5 12.5t-13.5 28.5z" />
<glyph unicode="&#xfc;" horiz-adv-x="968" d="M-41 315q0 10 10.5 37t23.5 58.5t25.5 62.5t16.5 45q4 12 7 30.5t8 37t11.5 35t14.5 24.5q12 12 30 12t28.5 -14t10.5 -31v-372q0 -45 19.5 -80t50.5 -58.5t70 -36t80 -12.5q47 0 80.5 24.5t56 62.5t34 83t11.5 84v305q0 16 13 28.5t30 12.5q16 0 28.5 -12t12.5 -29v-413 q0 -18 1 -44t7 -48.5t20.5 -38t40.5 -15.5q29 0 58.5 24.5t57.5 59.5t49.5 71t33.5 58q10 16 17.5 34.5t17.5 35.5q14 20 37 20q16 0 29.5 -11.5t13.5 -27.5q0 -4 -2 -9t-4 -9q-18 -39 -50 -95.5t-73 -107.5t-88 -87t-97 -36q-100 0 -135 95q-2 4 -2 16t-2 16q-4 -4 -6 -18 t-6 -19q-35 -41 -82 -65.5t-102 -24.5q-57 0 -111.5 18.5t-97.5 52.5t-69 84t-26 112v82v43q-2 -4 -3 -16.5t-3 -16.5q-10 -16 -23.5 -37t-29.5 -21t-29.5 12.5t-13.5 28.5zM135 915q0 37 27.5 63t64.5 26t63.5 -26t26.5 -63t-26.5 -62.5t-63.5 -25.5t-64.5 26t-27.5 62z M365 915q0 37 28.5 63t65.5 26t63.5 -26t26.5 -63t-26.5 -62.5t-63.5 -25.5t-65.5 26t-28.5 62z" />
<glyph unicode="&#x152;" horiz-adv-x="2156" d="M-41 901q0 127 18.5 254t61.5 239.5t112.5 208t172.5 162.5q10 6 22 7q16 0 27.5 -15.5t11.5 -34.5q0 -25 -20 -41q-27 -20 -54.5 -40.5t-52.5 -45.5q-63 -63 -104 -145t-66 -174t-35 -187.5t-10 -187.5q0 -152 34 -302t104.5 -268t179 -193t257.5 -75q135 0 242 74 t180.5 190.5t112.5 260t39 284.5q0 90 -9 177.5t-32 173.5q-20 90 -60 181t-96.5 167t-130 124t-164.5 48q-76 0 -134 -31t-97 -85t-58.5 -127t-19.5 -154q0 -41 23.5 -77t60.5 -36q25 0 40 19.5t24.5 46t13.5 56t4 52.5q0 20 13.5 33.5t29.5 13.5t28.5 -13.5t12.5 -33.5 q0 -43 -10 -89t-29.5 -86t-51.5 -66.5t-75 -26.5q-37 0 -67.5 18.5t-53 46t-35 64.5t-12.5 78q0 102 25.5 192t76 157.5t124 106.5t167.5 39q133 0 235.5 -80t173.5 -200.5t112 -265t53 -275.5q63 98 164 158q-27 39 -43 94q-45 2 -85 26.5t-71 63.5t-48 89t-17 99 q0 68 20 125.5t57 98.5t87.5 64.5t107.5 23.5q16 0 29.5 -13.5t13.5 -33.5t-13.5 -34t-29.5 -14q-84 0 -136.5 -60t-52.5 -157q0 -61 34 -113.5t87 -64.5q-2 12 -1 24.5t1 24.5q0 98 39 179t102.5 139.5t142.5 90.5t159 32q88 0 143 -54.5t55 -160.5q0 -100 -57 -170 t-140 -114t-175.5 -65.5t-159.5 -25.5q12 -31 31 -58q43 16 88 26.5t90 10.5q20 0 46.5 -6t50.5 -19.5t40 -35t16 -47.5q0 -35 -14 -59.5t-37.5 -42t-50.5 -25.5t-51 -8q-59 0 -103.5 25.5t-91.5 66.5q-111 -61 -177.5 -175t-66.5 -257q0 -109 31 -217.5t88.5 -194.5 t139 -139.5t186.5 -53.5q55 0 111.5 25t101.5 70t73.5 104.5t28.5 124.5q0 45 -26.5 84t-67.5 39q-45 0 -61.5 -14.5t-22.5 -30.5t-11 -30.5t-26 -14.5q-23 0 -36 21.5t-13 43.5q0 29 19.5 51.5t46 38t55.5 22.5t49 7q37 0 69.5 -17.5t57.5 -48t38 -69.5t13 -82 q0 -88 -34.5 -165t-92 -133t-128 -88t-144.5 -32q-94 0 -175 39t-146.5 105.5t-112.5 154.5t-72 187q-39 -106 -95.5 -194.5t-128 -153t-159.5 -101.5t-192 -37q-168 0 -293 80t-207 212t-122 300t-40 340zM1464 1366q49 2 129 17.5t156 48t131 85t55 130.5q0 63 -30.5 91.5 t-83.5 28.5q-72 0 -136.5 -31.5t-115.5 -86.5q-57 -61 -81 -127t-24 -156zM1597 1139q16 -18 45 -25.5t52 -7.5q12 0 37.5 5.5t25.5 25.5q0 6 -8 9t-18.5 5t-20.5 2h-14q-25 0 -49.5 -4t-49.5 -10z" />
<glyph unicode="&#x153;" horiz-adv-x="1333" d="M-41 315q0 70 25.5 132.5t71.5 109.5t107.5 74.5t131.5 27.5q94 0 173 -48t124 -132q53 92 149.5 136t198.5 44q41 0 88 -13t88 -38.5t67.5 -62.5t26.5 -84q0 -59 -33.5 -102.5t-85 -72t-109.5 -43t-108 -14.5q-59 0 -116.5 5.5t-114.5 19.5q20 -86 87 -143.5t157 -57.5 q111 0 201 46t151 139q16 23 28.5 49t28.5 49q14 20 35 20q16 0 30.5 -11.5t14.5 -27.5q0 -6 -4 -18q-70 -154 -192.5 -240t-292.5 -86q-92 0 -171 48.5t-124 130.5q-45 -82 -124 -130.5t-173 -48.5q-70 0 -131.5 28t-107.5 74t-71.5 108.5t-25.5 131.5zM43 315 q0 -51 19.5 -99t53.5 -84t80 -57.5t99 -21.5t100 21.5t82 57.5t54.5 83t19.5 100t-19.5 101.5t-54.5 84.5t-81 57.5t-101 21.5q-53 0 -99 -21.5t-80 -58.5t-53.5 -84t-19.5 -101zM549 313l2 -2l31 2v6h-31l-2 -4v-2zM637 344q57 -18 117.5 -25.5t119.5 -7.5q31 0 74 8.5 t83 27t67.5 47t27.5 67.5q0 29 -20.5 50t-49 36.5t-61 24t-55.5 8.5q-55 0 -107.5 -15.5t-93.5 -44t-68.5 -73t-33.5 -103.5z" />
<glyph unicode="&#x2c6;" horiz-adv-x="1179" d="M305 961q0 18 24.5 40.5t37.5 32.5q25 23 46 45.5t42 46.5q12 16 33.5 40t43.5 24q12 0 27 -10q27 -23 46.5 -49.5t42 -51t49 -47t48.5 -49.5q13 -12 13 -22q0 -16 -13.5 -26.5t-29.5 -10.5q-12 0 -39 21.5t-55.5 50t-53 55t-35.5 39.5q-10 -10 -35.5 -38t-55 -56.5 t-56.5 -50t-39 -21.5q-16 0 -28.5 10t-12.5 27z" />
<glyph unicode="&#x2dc;" horiz-adv-x="1179" d="M82 1073q0 10 2 14q23 49 66 83t98 34q51 0 92 -21.5t80 -46t78 -46t84 -21.5q35 0 61.5 17.5t42.5 46.5q12 20 37 20q16 0 30.5 -10.5t14.5 -28.5q0 -27 -21.5 -48.5t-50 -36.5t-60.5 -24.5t-54 -9.5q-55 0 -101.5 21.5t-86.5 46t-75.5 46t-70.5 21.5q-25 0 -41.5 -14 t-28.5 -32.5t-23.5 -33t-29.5 -14.5q-16 0 -29.5 10.5t-13.5 26.5z" />
<glyph unicode="&#x2000;" horiz-adv-x="960" />
<glyph unicode="&#x2001;" horiz-adv-x="1921" />
<glyph unicode="&#x2002;" horiz-adv-x="960" />
<glyph unicode="&#x2003;" horiz-adv-x="1921" />
<glyph unicode="&#x2004;" horiz-adv-x="640" />
<glyph unicode="&#x2005;" horiz-adv-x="480" />
<glyph unicode="&#x2006;" horiz-adv-x="320" />
<glyph unicode="&#x2007;" horiz-adv-x="320" />
<glyph unicode="&#x2008;" horiz-adv-x="240" />
<glyph unicode="&#x2009;" horiz-adv-x="384" />
<glyph unicode="&#x200a;" horiz-adv-x="106" />
<glyph unicode="&#x2010;" d="M170 352q0 16 14.5 21.5t26.5 5.5h547q12 0 27.5 -5.5t15.5 -21.5t-15.5 -21t-27.5 -5h-547q-12 0 -26.5 5t-14.5 21z" />
<glyph unicode="&#x2011;" d="M170 352q0 16 14.5 21.5t26.5 5.5h547q12 0 27.5 -5.5t15.5 -21.5t-15.5 -21t-27.5 -5h-547q-12 0 -26.5 5t-14.5 21z" />
<glyph unicode="&#x2012;" d="M170 352q0 16 14.5 21.5t26.5 5.5h547q12 0 27.5 -5.5t15.5 -21.5t-15.5 -21t-27.5 -5h-547q-12 0 -26.5 5t-14.5 21z" />
<glyph unicode="&#x2013;" d="M111 352q0 18 12 30.5t29 12.5h667q16 0 29.5 -12.5t13.5 -30.5q0 -16 -12 -28.5t-31 -12.5h-667q-16 0 -28.5 12.5t-12.5 28.5z" />
<glyph unicode="&#x2014;" horiz-adv-x="1458" d="M252 352q0 18 12 30.5t29 12.5h870q16 0 29.5 -12.5t13.5 -30.5t-12 -29.5t-31 -11.5h-870q-16 0 -28.5 12.5t-12.5 28.5z" />
<glyph unicode="&#x2018;" horiz-adv-x="231" d="M8 1210q0 16 11.5 53t30 74t40 66t39.5 29q16 0 30.5 -12.5t14.5 -28.5q0 -8 -12 -28t-27.5 -45.5t-29 -54t-13.5 -53.5q0 -14 7 -30.5t15.5 -29.5t15.5 -24.5t7 -17.5q0 -16 -14 -27.5t-31 -11.5q-18 0 -33.5 16.5t-27 40t-17.5 47t-6 37.5z" />
<glyph unicode="&#x2019;" horiz-adv-x="405" d="M51 1100q0 8 13.5 28.5t29 46t27.5 54t12 53.5q0 16 -7 31.5t-15.5 29t-15.5 24.5t-7 17q0 16 13.5 28.5t29.5 12.5q18 0 33.5 -17t27 -39.5t18.5 -47.5t7 -39q0 -16 -12 -53t-30.5 -74t-40 -65.5t-40.5 -28.5q-16 0 -29.5 11t-13.5 28z" />
<glyph unicode="&#x201a;" horiz-adv-x="231" d="M8 1210q0 16 11.5 53t30 74t40 66t39.5 29q16 0 30.5 -12.5t14.5 -28.5q0 -8 -12 -28t-27.5 -45.5t-29 -54t-13.5 -53.5q0 -14 7 -30.5t15.5 -29.5t15.5 -24.5t7 -17.5q0 -16 -14 -27.5t-31 -11.5q-18 0 -33.5 16.5t-27 40t-17.5 47t-6 37.5z" />
<glyph unicode="&#x201c;" horiz-adv-x="458" d="M43 1208q0 16 11.5 53t29.5 75t39.5 67t40.5 29q16 0 30.5 -11.5t14.5 -27.5q0 -8 -12.5 -29t-27.5 -47.5t-28.5 -55t-13.5 -53.5q0 -16 7 -31.5t16.5 -28.5t16.5 -24.5t7 -17.5q0 -16 -14.5 -27.5t-30.5 -11.5q-18 0 -33.5 16.5t-27 40t-18.5 47t-7 37.5zM184 1208 q0 16 12.5 53t31 75t40 67t39.5 29q16 0 30.5 -11.5t14.5 -27.5q0 -8 -13 -29t-28.5 -47.5t-29 -55t-13.5 -53.5q0 -14 7.5 -30.5t15.5 -29.5t15 -24.5t7 -17.5q0 -16 -13 -27.5t-30 -11.5q-18 0 -33.5 16.5t-26.5 40t-18.5 47t-7.5 37.5z" />
<glyph unicode="&#x201d;" horiz-adv-x="391" d="M31 1112q0 8 13 28.5t28.5 46t28 54.5t12.5 53q0 16 -7.5 31.5t-15.5 29t-15 25t-7 17.5q0 16 13 27.5t30 11.5q18 0 33.5 -16.5t26.5 -40t18.5 -47.5t7.5 -38q0 -16 -12.5 -53t-31 -75t-40 -66.5t-39.5 -28.5q-16 0 -29.5 12.5t-13.5 28.5zM174 1112q0 8 13.5 28.5 t28.5 46t27.5 54.5t12.5 53q0 16 -7 31.5t-15.5 29t-15.5 25t-7 17.5q0 16 12.5 27.5t28.5 11.5q18 0 33.5 -16.5t28 -40t19.5 -47.5t7 -38q0 -16 -12.5 -53t-30.5 -75t-39.5 -66.5t-40.5 -28.5q-16 0 -29.5 12.5t-13.5 28.5z" />
<glyph unicode="&#x2022;" horiz-adv-x="491" d="M102 1262q0 66 49.5 105.5t110.5 39.5t111.5 -39.5t50.5 -105.5t-50 -107t-112 -41q-61 0 -110.5 41t-49.5 107zM186 1262q0 -31 23.5 -51.5t52.5 -20.5t53.5 20.5t24.5 51.5t-24.5 50t-53.5 19t-52.5 -19.5t-23.5 -49.5z" />
<glyph unicode="&#x2026;" horiz-adv-x="782" d="M35 66q0 35 29.5 56t62.5 21t63.5 -21t30.5 -56t-30.5 -56.5t-63.5 -21.5t-62.5 21.5t-29.5 56.5zM287 66q0 37 30.5 57t63.5 20t63.5 -21t30.5 -56t-30.5 -56.5t-63.5 -21.5t-63.5 20.5t-30.5 57.5zM530 66q0 35 30 56t63 21t63.5 -21t30.5 -56t-31 -56.5t-63 -21.5 q-33 0 -63 21.5t-30 56.5z" />
<glyph unicode="&#x202f;" horiz-adv-x="384" />
<glyph unicode="&#x2039;" horiz-adv-x="968" d="M203 719q0 6 1 13t5 11l297 387q12 16 33 17q16 0 30.5 -12.5t14.5 -28.5q0 -6 -3 -12.5t-8 -10.5l-280 -364l280 -363q11 -14 11 -26q0 -16 -14.5 -28.5t-30.5 -12.5q-18 0 -33 18l-297 387q-4 4 -5 11.5t-1 13.5z" />
<glyph unicode="&#x203a;" horiz-adv-x="968" d="M387 338q0 16 8 24l281 363l-281 365q-8 8 -8 24t13.5 28.5t29.5 12.5q20 0 33 -16l299 -389q8 -9 8 -25q0 -10 -8 -23l-299 -389q-12 -16 -33 -16q-16 0 -29.5 12.5t-13.5 28.5z" />
<glyph unicode="&#x205f;" horiz-adv-x="480" />
<glyph unicode="&#x20ac;" horiz-adv-x="1601" d="M47 907q0 16 10.5 27.5t26.5 13.5l139 15q29 133 93.5 248.5t159.5 200.5t216 134t260 49q63 0 131 -13t132.5 -38.5t123 -62.5t101.5 -84q14 -14 14 -27q0 -16 -13.5 -30.5t-29.5 -14.5q-12 0 -29 12q-53 41 -100 74t-97 55.5t-106.5 34.5t-126.5 12q-121 0 -225 -41.5 t-187 -114.5t-140.5 -171.5t-86.5 -212.5l824 92h6q16 0 29.5 -11.5t13.5 -29.5q0 -16 -11.5 -27.5t-27.5 -13.5l-850 -96q-4 -27 -6 -52.5t-2 -52.5v-26q0 -12 2 -25l872 96h6q16 0 29.5 -11t13.5 -30q0 -16 -11 -27t-27 -14l-873 -96q20 -123 75.5 -231.5t140.5 -191.5 t194.5 -131t238.5 -48q147 0 276.5 65.5t217.5 184.5q10 12 17 24.5t18 22.5q12 16 34 16q16 0 29.5 -12.5t13.5 -28.5q0 -10 -8 -22q-49 -76 -114.5 -137.5t-143.5 -104.5t-164 -66.5t-176 -23.5q-145 0 -269 53.5t-219 145.5t-158.5 215t-86.5 260q-23 -4 -43 -8t-43 -4 t-41 8t-18 35q0 16 10 27.5t27 13.5l98 10q-2 16 -2 31v30v49q0 25 4 48q-29 -4 -60.5 -8.5t-60.5 -4.5q-16 0 -28.5 11.5t-12.5 29.5z" />
<glyph unicode="&#xe000;" horiz-adv-x="655" d="M0 0v655h655v-655h-655z" />
</font>
</defs>
</svg>
